  0
SECTION
  2
HEADER
  9
$ACADVER
  1
AC1018
  9
$ACADMAINTVER
 70
     0
  9
$DWGCODEPAGE
  3
ANSI_1252
  9
$INSBASE
 10
0.0
 20
0.0
 30
0.0
  9
$EXTMIN
 10
-236.7996822874404
 20
-0.73403482704907
 30
0.0
  9
$EXTMAX
 10
60.20031771255765
 20
209.265965172951
 30
0.0
  9
$LIMMIN
 10
0.0
 20
0.0
  9
$LIMMAX
 10
12.0
 20
9.0
  9
$ORTHOMODE
 70
     0
  9
$REGENMODE
 70
     1
  9
$FILLMODE
 70
     1
  9
$QTEXTMODE
 70
     0
  9
$MIRRTEXT
 70
     1
  9
$LTSCALE
 40
1.0
  9
$ATTMODE
 70
     1
  9
$TEXTSIZE
 40
0.2
  9
$TRACEWID
 40
0.05
  9
$TEXTSTYLE
  7
Standard
  9
$CLAYER
  8
0
  9
$CELTYPE
  6
ByLayer
  9
$CECOLOR
 62
   256
  9
$CELTSCALE
 40
1.0
  9
$DISPSILH
 70
     0
  9
$DIMSCALE
 40
1.0
  9
$DIMASZ
 40
0.18
  9
$DIMEXO
 40
0.0625
  9
$DIMDLI
 40
0.38
  9
$DIMRND
 40
0.0
  9
$DIMDLE
 40
0.0
  9
$DIMEXE
 40
0.18
  9
$DIMTP
 40
0.0
  9
$DIMTM
 40
0.0
  9
$DIMTXT
 40
0.18
  9
$DIMCEN
 40
0.09
  9
$DIMTSZ
 40
0.0
  9
$DIMTOL
 70
     0
  9
$DIMLIM
 70
     0
  9
$DIMTIH
 70
     1
  9
$DIMTOH
 70
     1
  9
$DIMSE1
 70
     0
  9
$DIMSE2
 70
     0
  9
$DIMTAD
 70
     0
  9
$DIMZIN
 70
     0
  9
$DIMBLK
  1

  9
$DIMASO
 70
     1
  9
$DIMSHO
 70
     1
  9
$DIMPOST
  1

  9
$DIMAPOST
  1

  9
$DIMALT
 70
     0
  9
$DIMALTD
 70
     2
  9
$DIMALTF
 40
25.4
  9
$DIMLFAC
 40
1.0
  9
$DIMTOFL
 70
     0
  9
$DIMTVP
 40
0.0
  9
$DIMTIX
 70
     0
  9
$DIMSOXD
 70
     0
  9
$DIMSAH
 70
     0
  9
$DIMBLK1
  1

  9
$DIMBLK2
  1

  9
$DIMSTYLE
  2
Standard
  9
$DIMCLRD
 70
     0
  9
$DIMCLRE
 70
     0
  9
$DIMCLRT
 70
     0
  9
$DIMTFAC
 40
1.0
  9
$DIMGAP
 40
0.09
  9
$DIMJUST
 70
     0
  9
$DIMSD1
 70
     0
  9
$DIMSD2
 70
     0
  9
$DIMTOLJ
 70
     1
  9
$DIMTZIN
 70
     0
  9
$DIMALTZ
 70
     0
  9
$DIMALTTZ
 70
     0
  9
$DIMUPT
 70
     0
  9
$DIMDEC
 70
     4
  9
$DIMTDEC
 70
     4
  9
$DIMALTU
 70
     2
  9
$DIMALTTD
 70
     2
  9
$DIMTXSTY
  7
Standard
  9
$DIMAUNIT
 70
     0
  9
$DIMADEC
 70
     0
  9
$DIMALTRND
 40
0.0
  9
$DIMAZIN
 70
     0
  9
$DIMDSEP
 70
    46
  9
$DIMATFIT
 70
     3
  9
$DIMFRAC
 70
     0
  9
$DIMLDRBLK
  1

  9
$DIMLUNIT
 70
     2
  9
$DIMLWD
 70
    -2
  9
$DIMLWE
 70
    -2
  9
$DIMTMOVE
 70
     0
  9
$LUNITS
 70
     2
  9
$LUPREC
 70
     4
  9
$SKETCHINC
 40
0.1
  9
$FILLETRAD
 40
0.5
  9
$AUNITS
 70
     0
  9
$AUPREC
 70
     0
  9
$MENU
  1
.
  9
$ELEVATION
 40
0.0
  9
$PELEVATION
 40
0.0
  9
$THICKNESS
 40
0.0
  9
$LIMCHECK
 70
     0
  9
$CHAMFERA
 40
0.5
  9
$CHAMFERB
 40
0.5
  9
$CHAMFERC
 40
1.0
  9
$CHAMFERD
 40
0.0
  9
$SKPOLY
 70
     0
  9
$TDCREATE
 40
2458137.840216863
  9
$TDUCREATE
 40
2458137.798550197
  9
$TDUPDATE
 40
2458137.840217407
  9
$TDUUPDATE
 40
2458137.798550741
  9
$TDINDWG
 40
0.0000000116
  9
$TDUSRTIMER
 40
0.0000000116
  9
$USRTIMER
 70
     1
  9
$ANGBASE
 50
0.0
  9
$ANGDIR
 70
     0
  9
$PDMODE
 70
     0
  9
$PDSIZE
 40
0.0
  9
$PLINEWID
 40
0.0
  9
$SPLFRAME
 70
     0
  9
$SPLINETYPE
 70
     6
  9
$SPLINESEGS
 70
     8
  9
$HANDSEED
  5
44C
  9
$SURFTAB1
 70
     6
  9
$SURFTAB2
 70
     6
  9
$SURFTYPE
 70
     6
  9
$SURFU
 70
     6
  9
$SURFV
 70
     6
  9
$UCSBASE
  2

  9
$UCSNAME
  2

  9
$UCSORG
 10
0.0
 20
0.0
 30
0.0
  9
$UCSXDIR
 10
1.0
 20
0.0
 30
0.0
  9
$UCSYDIR
 10
0.0
 20
1.0
 30
0.0
  9
$UCSORTHOREF
  2

  9
$UCSORTHOVIEW
 70
     0
  9
$UCSORGTOP
 10
0.0
 20
0.0
 30
0.0
  9
$UCSORGBOTTOM
 10
0.0
 20
0.0
 30
0.0
  9
$UCSORGLEFT
 10
0.0
 20
0.0
 30
0.0
  9
$UCSORGRIGHT
 10
0.0
 20
0.0
 30
0.0
  9
$UCSORGFRONT
 10
0.0
 20
0.0
 30
0.0
  9
$UCSORGBACK
 10
0.0
 20
0.0
 30
0.0
  9
$PUCSBASE
  2

  9
$PUCSNAME
  2

  9
$PUCSORG
 10
0.0
 20
0.0
 30
0.0
  9
$PUCSXDIR
 10
1.0
 20
0.0
 30
0.0
  9
$PUCSYDIR
 10
0.0
 20
1.0
 30
0.0
  9
$PUCSORTHOREF
  2

  9
$PUCSORTHOVIEW
 70
     0
  9
$PUCSORGTOP
 10
0.0
 20
0.0
 30
0.0
  9
$PUCSORGBOTTOM
 10
0.0
 20
0.0
 30
0.0
  9
$PUCSORGLEFT
 10
0.0
 20
0.0
 30
0.0
  9
$PUCSORGRIGHT
 10
0.0
 20
0.0
 30
0.0
  9
$PUCSORGFRONT
 10
0.0
 20
0.0
 30
0.0
  9
$PUCSORGBACK
 10
0.0
 20
0.0
 30
0.0
  9
$USERI1
 70
     0
  9
$USERI2
 70
     0
  9
$USERI3
 70
     0
  9
$USERI4
 70
     0
  9
$USERI5
 70
     0
  9
$USERR1
 40
18.1
  9
$USERR2
 40
0.0
  9
$USERR3
 40
0.0
  9
$USERR4
 40
0.0
  9
$USERR5
 40
0.0
  9
$WORLDVIEW
 70
     1
  9
$SHADEDGE
 70
     3
  9
$SHADEDIF
 70
    70
  9
$TILEMODE
 70
     1
  9
$MAXACTVP
 70
    64
  9
$PINSBASE
 10
0.0
 20
0.0
 30
0.0
  9
$PLIMCHECK
 70
     0
  9
$PEXTMIN
 10
1.00000000000000E+20
 20
1.00000000000000E+20
 30
1.00000000000000E+20
  9
$PEXTMAX
 10
-1.00000000000000E+20
 20
-1.00000000000000E+20
 30
-1.00000000000000E+20
  9
$PLIMMIN
 10
0.0
 20
0.0
  9
$PLIMMAX
 10
12.0
 20
9.0
  9
$UNITMODE
 70
     0
  9
$VISRETAIN
 70
     1
  9
$PLINEGEN
 70
     0
  9
$PSLTSCALE
 70
     1
  9
$TREEDEPTH
 70
  3020
  9
$CMLSTYLE
  2
Standard
  9
$CMLJUST
 70
     0
  9
$CMLSCALE
 40
1.0
  9
$PROXYGRAPHICS
 70
     1
  9
$MEASUREMENT
 70
     1
  9
$CELWEIGHT
370
    -1
  9
$ENDCAPS
280
     0
  9
$JOINSTYLE
280
     0
  9
$LWDISPLAY
290
     0
  9
$INSUNITS
 70
     4
  9
$HYPERLINKBASE
  1

  9
$STYLESHEET
  1

  9
$XEDIT
290
     1
  9
$CEPSNTYPE
380
     0
  9
$PSTYLEMODE
290
     1
  9
$FINGERPRINTGUID
  2
{93C56B89-D931-46B7-A812-7CD07804F621}
  9
$VERSIONGUID
  2
{FAEB1C32-E019-11D5-929B-00C0DF256EC4}
  9
$EXTNAMES
290
     1
  9
$PSVPSCALE
 40
0.0
  9
$OLESTARTUP
290
     0
  9
$SORTENTS
280
   127
  9
$INDEXCTL
280
     0
  9
$HIDETEXT
280
     1
  9
$XCLIPFRAME
290
     0
  9
$HALOGAP
280
     0
  9
$OBSCOLOR
 70
   257
  9
$OBSLTYPE
280
     0
  9
$INTERSECTIONDISPLAY
280
     0
  9
$INTERSECTIONCOLOR
 70
   257
  9
$DIMASSOC
280
     2
  9
$PROJECTNAME
  1

  0
ENDSEC
  0
SECTION
  2
CLASSES
  0
CLASS
  1
ACDBDICTIONARYWDFLT
  2
AcDbDictionaryWithDefault
  3
ObjectDBX Classes
 90
        0
 91
        4
280
     0
281
     0
  0
CLASS
  1
VISUALSTYLE
  2
AcDbVisualStyle
  3
ObjectDBX Classes
 90
     4095
 91
        4
280
     0
281
     0
  0
CLASS
  1
MATERIAL
  2
AcDbMaterial
  3
ObjectDBX Classes
 90
     1153
 91
        4
280
     0
281
     0
  0
ENDSEC
  0
SECTION
  2
TABLES
  0
TABLE
  2
VPORT
  5
8
330
0
100
AcDbSymbolTable
 70
     1
  0
VPORT
  5
29
330
8
100
AcDbSymbolTableRecord
100
AcDbViewportTableRecord
  2
*Active
 70
     0
 10
0.0
 20
0.0
 11
1.0
 21
1.0
 12
-88.29968228744137
 22
104.265965172951
 13
0.0
 23
0.0
 14
0.5
 24
0.5
 15
0.5
 25
0.5
 16
0.0
 26
0.0
 36
1.0
 17
0.0
 27
0.0
 37
0.0
 40
231.0000000000001
 41
1.60267857142857
 42
50.0
 43
0.0
 44
0.0
 50
0.0
 51
0.0
 71
     0
 72
   100
 73
     1
 74
     3
 75
     0
 76
     0
 77
     0
 78
     0
281
     0
 65
     1
110
0.0
120
0.0
130
0.0
111
1.0
121
0.0
131
0.0
112
0.0
122
1.0
132
0.0
 79
     0
146
0.0
  0
ENDTAB
  0
TABLE
  2
LTYPE
  5
5
330
0
100
AcDbSymbolTable
 70
     8
  0
LTYPE
  5
14
330
5
100
AcDbSymbolTableRecord
100
AcDbLinetypeTableRecord
  2
ByBlock
 70
     0
  3

 72
    65
 73
     0
 40
0.0
  0
LTYPE
  5
15
330
5
100
AcDbSymbolTableRecord
100
AcDbLinetypeTableRecord
  2
ByLayer
 70
     0
  3

 72
    65
 73
     0
 40
0.0
  0
LTYPE
  5
16
330
5
100
AcDbSymbolTableRecord
100
AcDbLinetypeTableRecord
  2
Continuous
 70
     0
  3
Solid line
 72
    65
 73
     0
 40
0.0
  0
LTYPE
  5
3F
330
5
100
AcDbSymbolTableRecord
100
AcDbLinetypeTableRecord
  2
DASHED
 70
     0
  3
Dashed
 72
    65
 73
     2
 40
15.0
 49
7.0
 74
     0
 49
-8.0
 74
     0
  0
LTYPE
  5
40
330
5
100
AcDbSymbolTableRecord
100
AcDbLinetypeTableRecord
  2
DOTTED
 70
     0
  3
Dotted
 72
    65
 73
     2
 40
1.0
 49
0.0
 74
     0
 49
-1.0
 74
     0
  0
LTYPE
  5
41
330
5
100
AcDbSymbolTableRecord
100
AcDbLinetypeTableRecord
  2
DOT_CENTER
 70
     0
  3
Dot_Center
 72
    65
 73
     4
 40
14.0
 49
12.0
 74
     0
 49
-1.0
 74
     0
 49
0.0
 74
     0
 49
-1.0
 74
     0
  0
LTYPE
  5
42
330
5
100
AcDbSymbolTableRecord
100
AcDbLinetypeTableRecord
  2
LONG_DASHED
 70
     0
  3
Long_Dashed
 72
    65
 73
     2
 40
15.0
 49
10.0
 74
     0
 49
-5.0
 74
     0
  0
LTYPE
  5
43
330
5
100
AcDbSymbolTableRecord
100
AcDbLinetypeTableRecord
  2
DASH_CENTER
 70
     0
  3
Dash_Center
 72
    65
 73
     4
 40
14.0
 49
11.0
 74
     0
 49
-1.0
 74
     0
 49
1.0
 74
     0
 49
-1.0
 74
     0
  0
LTYPE
  5
44
330
5
100
AcDbSymbolTableRecord
100
AcDbLinetypeTableRecord
  2
PHANTOM
 70
     0
  3
Phantom
 72
    65
 73
     6
 40
13.0
 49
10.0
 74
     0
 49
-1.0
 74
     0
 49
0.0
 74
     0
 49
-1.0
 74
     0
 49
0.0
 74
     0
 49
-1.0
 74
     0
  0
LTYPE
  5
45
330
5
100
AcDbSymbolTableRecord
100
AcDbLinetypeTableRecord
  2
CENTER_DASH_DASH
 70
     0
  3
Center_Dash_Dash
 72
    65
 73
     6
 40
14.0
 49
9.0
 74
     0
 49
-1.0
 74
     0
 49
1.0
 74
     0
 49
-1.0
 74
     0
 49
1.0
 74
     0
 49
-1.0
 74
     0
  0
ENDTAB
  0
TABLE
  2
LAYER
  5
2
330
0
100
AcDbSymbolTable
 70
     2
  0
LAYER
  5
10
330
2
100
AcDbSymbolTableRecord
100
AcDbLayerTableRecord
  2
0
 70
     0
 62
     7
  6
Continuous
370
    -3
390
F
  0
LAYER
  5
46
330
2
100
AcDbSymbolTableRecord
100
AcDbLayerTableRecord
  2
1
 70
     0
 62
     7
  6
Continuous
370
    -3
390
F
  0
ENDTAB
  0
TABLE
  2
STYLE
  5
3
330
0
100
AcDbSymbolTable
 70
     5
  0
STYLE
  5
11
330
3
100
AcDbSymbolTableRecord
100
AcDbTextStyleTableRecord
  2
Standard
 70
     0
 40
0.0
 41
1.0
 50
0.0
 71
     0
 42
0.2
  3
txt
  4

  0
STYLE
  5
137
330
3
100
AcDbSymbolTableRecord
100
AcDbTextStyleTableRecord
  2
CONVERTER_11
 70
     0
 40
0.0
 41
0.9
 50
0.0
 71
     0
 42
0.2
  3
txt.shx
  4

  0
STYLE
  5
3E7
330
3
100
AcDbSymbolTableRecord
100
AcDbTextStyleTableRecord
  2
CONVERTER_12
 70
     0
 40
0.0
 41
0.81
 50
0.0
 71
     0
 42
0.2
  3
txt.shx
  4

  0
STYLE
  5
3FD
330
3
100
AcDbSymbolTableRecord
100
AcDbTextStyleTableRecord
  2
CONVERTER_13
 70
     0
 40
0.0
 41
0.72
 50
0.0
 71
     0
 42
0.2
  3
txt.shx
  4

  0
STYLE
  5
400
330
3
100
AcDbSymbolTableRecord
100
AcDbTextStyleTableRecord
  2
CONVERTER_14
 70
     0
 40
0.0
 41
0.855
 50
0.0
 71
     0
 42
0.2
  3
txt.shx
  4

  0
ENDTAB
  0
TABLE
  2
VIEW
  5
6
330
0
100
AcDbSymbolTable
 70
     0
  0
ENDTAB
  0
TABLE
  2
UCS
  5
7
330
0
100
AcDbSymbolTable
 70
     0
  0
ENDTAB
  0
TABLE
  2
APPID
  5
9
330
0
100
AcDbSymbolTable
 70
     1
  0
APPID
  5
12
330
9
100
AcDbSymbolTableRecord
100
AcDbRegAppTableRecord
  2
ACAD
 70
     0
  0
ENDTAB
  0
TABLE
  2
DIMSTYLE
  5
A
330
0
100
AcDbSymbolTable
 70
     7
100
AcDbDimStyleTable
  0
DIMSTYLE
105
27
330
A
100
AcDbSymbolTableRecord
100
AcDbDimStyleTableRecord
  2
Standard
 70
     0
178
     0
340
11
  0
DIMSTYLE
105
17E
102
{ACAD_REACTORS
330
17F
102
}
330
A
100
AcDbSymbolTableRecord
100
AcDbDimStyleTableRecord
  2
ME10_DIM_10
 70
     0
 41
3.5
 42
0.0
 44
1.5
 73
     0
 74
     0
 77
     1
 78
     8
140
3.5
147
1.5
172
     1
173
     1
174
     1
175
     1
176
     2
177
     2
178
     3
340
137
  0
DIMSTYLE
105
2BD
102
{ACAD_REACTORS
330
2BE
102
}
330
A
100
AcDbSymbolTableRecord
100
AcDbDimStyleTableRecord
  2
ME10_DIM_11
 70
     0
 41
3.5
 42
0.0
 44
1.5
 73
     0
 74
     0
 77
     1
 78
     8
140
3.5
147
1.5
172
     1
173
     1
174
     1
175
     1
176
     2
177
     2
178
     3
340
137
  0
DIMSTYLE
105
2C8
102
{ACAD_REACTORS
330
2C9
102
}
330
A
100
AcDbSymbolTableRecord
100
AcDbDimStyleTableRecord
  2
ME10_DIM_12
 70
     0
 41
3.5
 42
0.0
 44
1.5
 73
     0
 74
     0
 77
     1
 78
     8
140
3.5
147
1.5
172
     1
173
     1
174
     1
175
     1
176
     2
177
     2
178
     3
340
137
  0
DIMSTYLE
105
2D3
102
{ACAD_REACTORS
330
2D4
102
}
330
A
100
AcDbSymbolTableRecord
100
AcDbDimStyleTableRecord
  2
ME10_DIM_13
 70
     0
 41
3.5
 42
0.0
 44
2.0
 73
     0
 74
     0
 77
     1
 78
     8
140
3.5
147
2.0
172
     1
173
     1
174
     1
175
     1
176
     2
177
     2
178
     3
340
137
  0
DIMSTYLE
105
2DE
102
{ACAD_REACTORS
330
2DF
102
}
330
A
100
AcDbSymbolTableRecord
100
AcDbDimStyleTableRecord
  2
ME10_DIM_14
 70
     0
 41
3.5
 42
0.0
 44
2.0
 73
     0
 74
     0
 77
     1
 78
     8
140
3.5
147
2.0
172
     1
173
     1
174
     1
175
     1
176
     2
177
     2
178
     3
340
137
  0
DIMSTYLE
105
2E9
102
{ACAD_REACTORS
330
2EA
102
}
330
A
100
AcDbSymbolTableRecord
100
AcDbDimStyleTableRecord
  2
ME10_DIM_15
 70
     0
 41
3.5
 42
0.0
 44
2.0
 73
     0
 74
     0
 77
     1
 78
     8
140
3.5
147
2.0
172
     1
173
     1
174
     1
175
     1
176
     2
177
     2
178
     3
340
137
  0
ENDTAB
  0
TABLE
  2
BLOCK_RECORD
  5
1
330
0
100
AcDbSymbolTable
 70
    23
  0
BLOCK_RECORD
  5
1F
330
1
100
AcDbSymbolTableRecord
100
AcDbBlockTableRecord
  2
*Model_Space
340
22
  0
BLOCK_RECORD
  5
1B
330
1
100
AcDbSymbolTableRecord
100
AcDbBlockTableRecord
  2
*Paper_Space
340
1E
  0
BLOCK_RECORD
  5
23
330
1
100
AcDbSymbolTableRecord
100
AcDbBlockTableRecord
  2
*Paper_Space0
340
26
  0
BLOCK_RECORD
  5
47
330
1
100
AcDbSymbolTableRecord
100
AcDbBlockTableRecord
  2
UKN_35_BU-select__1
340
0
102
{BLKREFS
331
4B
102
}
  0
BLOCK_RECORD
  5
4A
330
1
100
AcDbSymbolTableRecord
100
AcDbBlockTableRecord
  2
AllgSicht1
340
0
102
{BLKREFS
331
7D
102
}
  0
BLOCK_RECORD
  5
4E
330
1
100
AcDbSymbolTableRecord
100
AcDbBlockTableRecord
  2
UKN_35_BU-select__2
340
0
102
{BLKREFS
331
52
102
}
  0
BLOCK_RECORD
  5
51
330
1
100
AcDbSymbolTableRecord
100
AcDbBlockTableRecord
  2
Drfsicht1
340
0
102
{BLKREFS
331
7E
102
}
  0
BLOCK_RECORD
  5
55
330
1
100
AcDbSymbolTableRecord
100
AcDbBlockTableRecord
  2
UKN_35_BU-select__3
340
0
102
{BLKREFS
331
59
102
}
  0
BLOCK_RECORD
  5
58
330
1
100
AcDbSymbolTableRecord
100
AcDbBlockTableRecord
  2
Rckans1
340
0
102
{BLKREFS
331
7F
102
}
  0
BLOCK_RECORD
  5
5C
330
1
100
AcDbSymbolTableRecord
100
AcDbBlockTableRecord
  2
UKN_35_BU-select__4
340
0
102
{BLKREFS
331
60
102
}
  0
BLOCK_RECORD
  5
5F
330
1
100
AcDbSymbolTableRecord
100
AcDbBlockTableRecord
  2
SA_Links1
340
0
102
{BLKREFS
331
80
102
}
  0
BLOCK_RECORD
  5
63
330
1
100
AcDbSymbolTableRecord
100
AcDbBlockTableRecord
  2
UKN_35_BU-select__5
340
0
102
{BLKREFS
331
67
102
}
  0
BLOCK_RECORD
  5
66
330
1
100
AcDbSymbolTableRecord
100
AcDbBlockTableRecord
  2
SA_Rechts1
340
0
102
{BLKREFS
331
81
102
}
  0
BLOCK_RECORD
  5
6A
330
1
100
AcDbSymbolTableRecord
100
AcDbBlockTableRecord
  2
UKN_35_BU-select__6
340
0
102
{BLKREFS
331
6E
102
}
  0
BLOCK_RECORD
  5
6D
330
1
100
AcDbSymbolTableRecord
100
AcDbBlockTableRecord
  2
Vordans1
340
0
102
{BLKREFS
331
82
102
}
  0
BLOCK_RECORD
  5
71
330
1
100
AcDbSymbolTableRecord
100
AcDbBlockTableRecord
  2
_rahmen
340
0
102
{BLKREFS
331
78
102
}
  0
BLOCK_RECORD
  5
74
330
1
100
AcDbSymbolTableRecord
100
AcDbBlockTableRecord
  2
_punkt
340
0
102
{BLKREFS
331
79
102
}
  0
BLOCK_RECORD
  5
77
330
1
100
AcDbSymbolTableRecord
100
AcDbBlockTableRecord
  2
A4I_CS
340
0
102
{BLKREFS
331
83
102
}
  0
BLOCK_RECORD
  5
7C
330
1
100
AcDbSymbolTableRecord
100
AcDbBlockTableRecord
  2
1
340
0
102
{BLKREFS
331
86
102
}
  0
BLOCK_RECORD
  5
175
330
1
100
AcDbSymbolTableRecord
100
AcDbBlockTableRecord
  2
*D17
340
0
  0
BLOCK_RECORD
  5
2B4
330
1
100
AcDbSymbolTableRecord
100
AcDbBlockTableRecord
  2
*D18
340
0
  0
BLOCK_RECORD
  5
2BF
330
1
100
AcDbSymbolTableRecord
100
AcDbBlockTableRecord
  2
*D19
340
0
  0
BLOCK_RECORD
  5
2CA
330
1
100
AcDbSymbolTableRecord
100
AcDbBlockTableRecord
  2
*D20
340
0
  0
BLOCK_RECORD
  5
2D5
330
1
100
AcDbSymbolTableRecord
100
AcDbBlockTableRecord
  2
*D21
340
0
  0
BLOCK_RECORD
  5
2E0
330
1
100
AcDbSymbolTableRecord
100
AcDbBlockTableRecord
  2
*D22
340
0
  0
ENDTAB
  0
ENDSEC
  0
SECTION
  2
BLOCKS
  0
BLOCK
  5
20
330
1F
100
AcDbEntity
  8
0
100
AcDbBlockBegin
  2
*Model_Space
 70
     0
 10
0.0
 20
0.0
 30
0.0
  3
*Model_Space
  1

  0
ENDBLK
  5
21
330
1F
100
AcDbEntity
  8
0
100
AcDbBlockEnd
  0
BLOCK
  5
1C
330
1B
100
AcDbEntity
 67
     1
  8
0
100
AcDbBlockBegin
  2
*Paper_Space
 70
     0
 10
0.0
 20
0.0
 30
0.0
  3
*Paper_Space
  1

  0
ENDBLK
  5
1D
330
1B
100
AcDbEntity
 67
     1
  8
0
100
AcDbBlockEnd
  0
BLOCK
  5
24
330
23
100
AcDbEntity
  8
0
100
AcDbBlockBegin
  2
*Paper_Space0
 70
     0
 10
0.0
 20
0.0
 30
0.0
  3
*Paper_Space0
  1

  0
ENDBLK
  5
25
330
23
100
AcDbEntity
  8
0
100
AcDbBlockEnd
  0
BLOCK
  5
48
330
47
100
AcDbEntity
  8
0
100
AcDbBlockBegin
  2
UKN_35_BU-select__1
 70
     0
 10
-13.40063476410452
 20
43.12443045499898
 30
0.0
  3
UKN_35_BU-select__1
  1

  0
LINE
  5
87
330
47
100
AcDbEntity
  8
0
  6
Continuous
 62
     7
100
AcDbLine
 10
0.34250918688748
 20
88.32859001851777
 30
0.0
 11
-0.33249081311253
 21
87.74402287096328
 31
0.0
  0
LINE
  5
88
330
47
100
AcDbEntity
  8
0
  6
Continuous
 62
     7
100
AcDbLine
 10
1.70852106537018
 20
87.6070707017162
 30
0.0
 11
1.70852106537018
 21
87.15483349223265
 31
0.0
  0
LINE
  5
89
330
47
100
AcDbEntity
  8
0
  6
Continuous
 62
     7
100
AcDbLine
 10
6.19318999651839
 20
88.20790241092725
 30
0.0
 11
1.70852106537018
 21
87.6070707017162
 31
0.0
  0
LINE
  5
8A
330
47
100
AcDbEntity
  8
0
  6
Continuous
 62
     7
100
AcDbLine
 10
1.71907166935878
 20
87.93121065861217
 30
0.0
 11
-1.45095693761353
 21
88.84631909339932
 31
0.0
  0
LINE
  5
8B
330
47
100
AcDbEntity
  8
0
  6
Continuous
 62
     7
100
AcDbLine
 10
22.36878223796049
 20
90.74342735929642
 30
0.0
 11
25.10758757742877
 21
85.20905235929642
 31
0.0
  0
LINE
  5
8C
330
47
100
AcDbEntity
  8
0
  6
Continuous
 62
     7
100
AcDbLine
 10
29.90063542511737
 20
47.83955654868051
 30
0.0
 11
26.73964270130418
 21
48.7520565486805
 31
0.0
  0
LINE
  5
8D
330
47
100
AcDbEntity
  8
0
  6
Continuous
 62
     7
100
AcDbLine
 10
29.90063542511737
 20
47.83955654868051
 30
0.0
 11
29.90063542511737
 21
81.02287754547132
 31
0.0
  0
LINE
  5
8E
330
47
100
AcDbEntity
  8
0
  6
Continuous
 62
     7
100
AcDbLine
 10
25.68150083587108
 20
85.90262531350893
 30
0.0
 11
25.91008757742878
 21
85.44071415480876
 31
0.0
  0
LINE
  5
8F
330
47
100
AcDbEntity
  8
0
  6
Continuous
 62
     7
100
AcDbLine
 10
27.66081046640537
 20
85.5489499454463
 30
0.0
 11
25.68150083587108
 21
85.90262531350893
 31
0.0
  0
LINE
  5
90
330
47
100
AcDbEntity
  8
0
  6
Continuous
 62
     7
100
AcDbLine
 10
30.37313542511737
 20
57.38532156189446
 30
0.0
 11
30.37313542511737
 21
81.43207454875947
 31
0.0
  0
LINE
  5
91
330
47
100
AcDbEntity
  8
0
  6
Continuous
 62
     7
100
AcDbLine
 10
23.17128223796047
 20
90.97508915480878
 30
0.0
 11
23.39986897951809
 21
90.51317799610857
 31
0.0
  0
LINE
  5
92
330
47
100
AcDbEntity
  8
0
  6
Continuous
 62
     7
100
AcDbLine
 10
32.07805934898377
 20
98.27353563003764
 30
0.0
 11
24.57805934898377
 21
91.77834510165437
 31
0.0
  0
LINE
  5
93
330
47
100
AcDbEntity
  8
0
  6
Continuous
 62
     7
100
AcDbLine
 10
30.89986897951809
 20
97.00836852449186
 30
0.0
 11
32.07805934898377
 21
98.27353563003764
 31
0.0
  0
LINE
  5
94
330
47
100
AcDbEntity
  8
0
  6
Continuous
 62
     7
100
AcDbLine
 10
24.57805934898377
 20
91.77834510165437
 30
0.0
 11
23.39986897951809
 21
90.51317799610857
 31
0.0
  0
LINE
  5
95
330
47
100
AcDbEntity
  8
0
  6
Continuous
 62
     7
100
AcDbLine
 10
30.89986897951809
 20
97.00836852449186
 30
0.0
 11
23.39986897951809
 21
90.51317799610857
 31
0.0
  0
LINE
  5
96
330
47
100
AcDbEntity
  8
0
  6
Continuous
 62
     7
100
AcDbLine
 10
23.05903473522037
 20
94.8478775454713
 30
0.0
 11
30.55903473522037
 21
101.3430680738546
 31
0.0
  0
LINE
  5
97
330
47
100
AcDbEntity
  8
0
  6
Continuous
 62
     7
100
AcDbLine
 10
24.57805934898377
 20
91.77834510165437
 30
0.0
 11
23.05903473522037
 21
94.8478775454713
 31
0.0
  0
LINE
  5
98
330
47
100
AcDbEntity
  8
0
  6
Continuous
 62
     7
100
AcDbLine
 10
27.66081046640537
 20
85.5489499454463
 30
0.0
 11
29.90063542511737
 21
81.02287754547132
 31
0.0
  0
LINE
  5
99
330
47
100
AcDbEntity
  8
0
  6
Continuous
 62
     7
100
AcDbLine
 10
-13.40063476410452
 20
66.35843310498232
 30
0.0
 11
-10.28813476410453
 21
70.85093988711411
 31
0.0
  0
LINE
  5
9A
330
47
100
AcDbEntity
  8
0
  6
Continuous
 62
     7
100
AcDbLine
 10
-8.06438476410452
 20
72.4231368389011
 30
0.0
 11
-5.33313476410453
 21
74.78846872298735
 31
0.0
  0
LINE
  5
9B
330
47
100
AcDbEntity
  8
0
  6
Continuous
 62
     7
100
AcDbLine
 10
-4.49380994061212
 20
76.25938361885618
 30
0.0
 11
9.85214732750778
 21
72.11806247359023
 31
0.0
  0
LINE
  5
9C
330
47
100
AcDbEntity
  8
0
  6
Continuous
 62
     7
100
AcDbLine
 10
-5.23630994061212
 20
71.60674195858522
 30
0.0
 11
-8.37063476410452
 21
72.51154359887076
 31
0.0
  0
LINE
  5
9D
330
47
100
AcDbEntity
  8
0
  6
Continuous
 62
     7
100
AcDbLine
 10
-5.23630994061212
 20
75.61635975654623
 30
0.0
 11
-5.23630994061212
 21
70.4202073338396
 31
0.0
  0
LINE
  5
9E
330
47
100
AcDbEntity
  8
0
  6
Continuous
 62
     7
100
AcDbLine
 10
9.85214732750778
 20
71.26069732384364
 30
0.0
 11
-5.23630994061212
 21
75.61635975654623
 31
0.0
  0
LINE
  5
9F
330
47
100
AcDbEntity
  8
0
  6
Continuous
 62
     7
100
AcDbLine
 10
-8.37063476410452
 20
72.51154359887076
 30
0.0
 11
-10.28813476410453
 21
70.85093988711411
 31
0.0
  0
LINE
  5
A0
330
47
100
AcDbEntity
  8
0
  6
Continuous
 62
     7
100
AcDbLine
 10
9.85214732750778
 20
66.064544901137
 30
0.0
 11
-5.23630994061212
 21
70.4202073338396
 31
0.0
  0
LINE
  5
A1
330
47
100
AcDbEntity
  8
0
  6
Continuous
 62
     2
100
AcDbLine
 10
-6.91505855275122
 20
92.27119022399575
 30
0.0
 11
-6.91505855275122
 21
89.82580180940396
 31
0.0
  0
LINE
  5
A2
330
47
100
AcDbEntity
  8
0
  6
Continuous
 62
     7
100
AcDbLine
 10
-6.65063476410452
 20
95.5001879423287
 30
0.0
 11
-13.40063476410452
 21
89.65451646678375
 31
0.0
  0
LINE
  5
A3
330
47
100
AcDbEntity
  8
0
  6
Continuous
 62
     2
100
AcDbLine
 10
-7.19005855275122
 20
92.03303323795502
 30
0.0
 11
-7.19005855275122
 21
90.03303323795502
 31
0.0
  0
LINE
  5
A4
330
47
100
AcDbEntity
  8
0
  6
Continuous
 62
     7
100
AcDbLine
 10
-7.19005855275122
 20
92.03303323795502
 30
0.0
 11
-6.91505855275122
 21
92.27119022399575
 31
0.0
  0
LINE
  5
A5
330
47
100
AcDbEntity
  8
0
  6
Continuous
 62
     2
100
AcDbLine
 10
-1.45095693761353
 20
93.00324103156461
 30
0.0
 11
-1.45095693761353
 21
88.84631909339932
 31
0.0
  0
LINE
  5
A6
330
47
100
AcDbEntity
  8
0
  6
Continuous
 62
     7
100
AcDbLine
 10
-1.45095693761353
 20
93.00324103156461
 30
0.0
 11
6.19318999651839
 21
90.79656588649158
 31
0.0
  0
LINE
  5
A7
330
47
100
AcDbEntity
  8
0
  6
Continuous
 62
     7
100
AcDbLine
 10
-6.65063476410452
 20
95.5001879423287
 30
0.0
 11
6.19318999651839
 21
91.79249510084368
 31
0.0
  0
LINE
  5
A8
330
47
100
AcDbEntity
  8
0
  6
Continuous
 62
     7
100
AcDbLine
 10
-5.23630994061212
 20
83.14075696132099
 30
0.0
 11
-5.23630994061212
 21
78.30103850827798
 31
0.0
  0
LINE
  5
A9
330
47
100
AcDbEntity
  8
0
  6
Continuous
 62
     7
100
AcDbLine
 10
-13.40063476410452
 20
85.49759452861844
 30
0.0
 11
-13.40063476410452
 21
89.65451646678375
 31
0.0
  0
LINE
  5
AA
330
47
100
AcDbEntity
  8
0
  6
Continuous
 62
     7
100
AcDbLine
 10
-5.23630994061212
 20
74.76051780403355
 30
0.0
 11
-5.33313476410453
 21
74.78846872298735
 31
0.0
  0
LINE
  5
AB
330
47
100
AcDbEntity
  8
0
  6
Continuous
 62
     7
100
AcDbLine
 10
-5.23630994061212
 20
74.92822331775633
 30
0.0
 11
-5.33313476410453
 21
74.78846872298735
 31
0.0
  0
LINE
  5
AC
330
47
100
AcDbEntity
  8
0
  6
Continuous
 62
     7
100
AcDbLine
 10
-4.49380994061212
 20
76.25938361885618
 30
0.0
 11
-5.23630994061212
 21
75.61635975654623
 31
0.0
  0
LINE
  5
AD
330
47
100
AcDbEntity
  8
0
  6
Continuous
 62
     7
100
AcDbLine
 10
-4.49380994061212
 20
78.08669722084133
 30
0.0
 11
-4.49380994061212
 21
76.25938361885618
 31
0.0
  0
LINE
  5
AE
330
47
100
AcDbEntity
  8
0
  6
Continuous
 62
     7
100
AcDbLine
 10
-5.72595693761342
 20
89.30098243038616
 30
0.0
 11
4.34158838138067
 21
86.39473243038616
 31
0.0
  0
LINE
  5
AF
330
47
100
AcDbEntity
  8
0
  6
Continuous
 62
     7
100
AcDbLine
 10
-5.23630994061212
 20
78.30103850827798
 30
0.0
 11
9.85214732750778
 21
73.9453760755754
 31
0.0
  0
LINE
  5
B0
330
47
100
AcDbEntity
  8
0
  6
Continuous
 62
     7
100
AcDbLine
 10
6.19318999651839
 20
83.99826646678375
 30
0.0
 11
-13.40063476410452
 21
89.65451646678375
 31
0.0
  0
LINE
  5
B1
330
47
100
AcDbEntity
  8
0
  6
Continuous
 62
     7
100
AcDbLine
 10
9.85214732750778
 20
78.7850945286184
 30
0.0
 11
-13.40063476410452
 21
85.49759452861844
 31
0.0
  0
LINE
  5
B2
330
47
100
AcDbEntity
  8
0
  6
Continuous
 62
     7
100
AcDbLine
 10
9.85214732750778
 20
65.03694124354043
 30
0.0
 11
-10.28813476410453
 21
70.85093988711411
 31
0.0
  0
LINE
  5
B3
330
47
100
AcDbEntity
  8
0
  6
Continuous
 62
     7
100
AcDbLine
 10
9.85214732750778
 20
65.03694124354043
 30
0.0
 11
9.85214732750778
 21
78.7850945286184
 31
0.0
  0
LINE
  5
B4
330
47
100
AcDbEntity
  8
0
  6
Continuous
 62
     7
100
AcDbLine
 10
1.70041869344777
 20
87.73588626883952
 30
0.0
 11
1.70041869344777
 21
87.15717244553791
 31
0.0
  0
LINE
  5
B5
330
47
100
AcDbEntity
  8
0
  6
Continuous
 62
     7
100
AcDbLine
 10
2.62311367727818
 20
86.89081334689071
 30
0.0
 11
6.19318999651839
 21
87.36911288021965
 31
0.0
  0
LINE
  5
B6
330
47
100
AcDbEntity
  8
0
  6
Continuous
 62
     7
100
AcDbLine
 10
6.19318999651839
 20
99.7166275454713
 30
0.0
 11
6.19318999651839
 21
83.99826646678375
 31
0.0
  0
LINE
  5
B7
330
47
100
AcDbEntity
  8
0
  6
Continuous
 62
     7
100
AcDbLine
 10
0.36417100654938
 20
109.1935490210163
 30
0.0
 11
1.11417100654938
 21
109.8430680738546
 31
0.0
  0
LINE
  5
B8
330
47
100
AcDbEntity
  8
0
  6
Continuous
 62
     7
100
AcDbLine
 10
0.36417100654938
 20
109.1935490210163
 30
0.0
 11
12.94318999651839
 21
105.5622990210163
 31
0.0
  0
LINE
  5
B9
330
47
100
AcDbEntity
  8
0
  6
Continuous
 62
     7
100
AcDbLine
 10
-13.40063476410452
 20
63.02423530041224
 30
0.0
 11
-7.91869395814902
 21
61.44173530041224
 31
0.0
  0
LINE
  5
BA
330
47
100
AcDbEntity
  8
0
  6
Continuous
 62
     2
100
AcDbLine
 10
-12.10159665842792
 20
56.37055112297505
 30
0.0
 11
-7.91869395814902
 21
59.99305112297503
 31
0.0
  0
LINE
  5
BB
330
47
100
AcDbEntity
  8
0
  6
Continuous
 62
     7
100
AcDbLine
 10
-8.17284865407042
 20
61.51510344146525
 30
0.0
 11
-13.24210596429722
 21
57.1249978324889
 31
0.0
  0
LINE
  5
BC
330
47
100
AcDbEntity
  8
0
  6
Continuous
 62
     7
100
AcDbLine
 10
-13.40063476410452
 20
66.35843310498232
 30
0.0
 11
-13.40063476410452
 21
63.02423530041224
 31
0.0
  0
LINE
  5
BD
330
47
100
AcDbEntity
  8
0
  6
Continuous
 62
     7
100
AcDbLine
 10
-7.91869395814902
 20
51.95875712897264
 30
0.0
 11
-7.91869395814902
 21
61.44173530041224
 31
0.0
  0
LINE
  5
BE
330
47
100
AcDbEntity
  8
0
  6
Continuous
 62
     7
100
AcDbLine
 10
16.97953640065359
 20
43.86193045499898
 30
0.0
 11
16.97953640065359
 21
45.29087237124332
 31
0.0
  0
LINE
  5
BF
330
47
100
AcDbEntity
  8
0
  6
Continuous
 62
     7
100
AcDbLine
 10
19.53431134181767
 20
44.22861284482413
 30
0.0
 11
19.53431134181767
 21
43.12443045499898
 31
0.0
  0
LINE
  5
C0
330
47
100
AcDbEntity
  8
0
  6
Continuous
 62
     7
100
AcDbLine
 10
-5.87878740463842
 20
58.87073242465808
 30
0.0
 11
-6.70625839285083
 21
58.15412152797147
 31
0.0
  0
LINE
  5
C1
330
47
100
AcDbEntity
  8
0
  6
Continuous
 62
     7
100
AcDbLine
 10
-2.88593899506402
 20
57.73723803422142
 30
0.0
 11
-6.70625839285083
 21
59.1841240820462
 31
0.0
  0
LINE
  5
C2
330
47
100
AcDbEntity
  8
0
  6
Continuous
 62
     7
100
AcDbLine
 10
-6.70625839285083
 20
58.15412152797147
 30
0.0
 11
-5.75363044868791
 21
56.65981336224692
 31
0.0
  0
LINE
  5
C3
330
47
100
AcDbEntity
  8
0
  6
Continuous
 62
     2
100
AcDbLine
 10
2.91987835884178
 20
56.97881610539847
 30
0.0
 11
2.67229381942668
 21
56.76440160468069
 31
0.0
  0
LINE
  5
C4
330
47
100
AcDbEntity
  8
0
  6
Continuous
 62
     7
100
AcDbLine
 10
19.07964800483089
 20
52.34894719473559
 30
0.0
 11
18.64663530293859
 21
52.47394719473559
 31
0.0
  0
LINE
  5
C5
330
47
100
AcDbEntity
  8
0
  6
Continuous
 62
     7
100
AcDbLine
 10
18.21362260104638
 20
52.16593449284337
 30
0.0
 11
18.21362260104638
 21
51.23549231558241
 31
0.0
  0
LINE
  5
C6
330
47
100
AcDbEntity
  8
0
  6
Continuous
 62
     7
100
AcDbLine
 10
18.53838212746558
 20
45.92340412597385
 30
0.0
 11
18.53838212746558
 21
44.62436602029719
 31
0.0
  0
LINE
  5
C7
330
47
100
AcDbEntity
  8
0
  6
Continuous
 62
     7
100
AcDbLine
 10
18.53838212746558
 20
44.62436602029719
 30
0.0
 11
19.53431134181767
 21
44.22861284482413
 31
0.0
  0
LINE
  5
C8
330
47
100
AcDbEntity
  8
0
  6
Continuous
 62
     7
100
AcDbLine
 10
19.27450372068228
 20
45.71090412597386
 30
0.0
 11
18.53838212746558
 21
45.92340412597385
 31
0.0
  0
LINE
  5
C9
330
47
100
AcDbEntity
  8
0
  6
Continuous
 62
     7
100
AcDbLine
 10
18.21362260104638
 20
51.23549231558241
 30
0.0
 11
19.27450372068228
 21
46.14391682786607
 31
0.0
  0
LINE
  5
CA
330
47
100
AcDbEntity
  8
0
  6
Continuous
 62
     7
100
AcDbLine
 10
19.51266070672307
 20
50.63749427929078
 30
0.0
 11
19.51266070672307
 21
51.79093449284337
 31
0.0
  0
LINE
  5
CB
330
47
100
AcDbEntity
  8
0
  6
Continuous
 62
     7
100
AcDbLine
 10
-6.55470394718863
 20
55.0724100142996
 30
0.0
 11
-5.66702790830952
 21
54.64295493354273
 31
0.0
  0
LINE
  5
CC
330
47
100
AcDbEntity
  8
0
  6
Continuous
 62
     7
100
AcDbLine
 10
-2.64837456036223
 20
57.25718541808405
 30
0.0
 11
-5.66702790830952
 21
54.64295493354273
 31
0.0
  0
LINE
  5
CD
330
47
100
AcDbEntity
  8
0
  6
Continuous
 62
     7
100
AcDbLine
 10
-2.51702790830951
 20
57.19772987470682
 30
0.0
 11
-5.66702790830952
 21
54.46974985278499
 31
0.0
  0
LINE
  5
CE
330
47
100
AcDbEntity
  8
0
  6
Continuous
 62
     7
100
AcDbLine
 10
-5.75363044868791
 20
56.0539522972857
 30
0.0
 11
-6.64130648756702
 21
56.13664049884092
 31
0.0
  0
LINE
  5
CF
330
47
100
AcDbEntity
  8
0
  6
Continuous
 62
     7
100
AcDbLine
 10
-5.75363044868791
 20
56.65981336224692
 30
0.0
 11
-5.75363044868791
 21
56.0539522972857
 31
0.0
  0
LINE
  5
D0
330
47
100
AcDbEntity
  8
0
  6
Continuous
 62
     7
100
AcDbLine
 10
-6.64130648756702
 20
56.13664049884092
 30
0.0
 11
-6.55470394718863
 21
55.0724100142996
 31
0.0
  0
LINE
  5
D1
330
47
100
AcDbEntity
  8
0
  6
Continuous
 62
     7
100
AcDbLine
 10
-3.29759726264402
 20
57.89314714595128
 30
0.0
 11
-6.55470394718863
 21
55.0724100142996
 31
0.0
  0
LINE
  5
D2
330
47
100
AcDbEntity
  8
0
  6
Continuous
 62
     7
100
AcDbLine
 10
-2.63593899506392
 20
57.23205654868048
 30
0.0
 11
-2.88593899506402
 21
57.73723803422142
 31
0.0
  0
LINE
  5
D3
330
47
100
AcDbEntity
  8
0
  6
Continuous
 62
     7
100
AcDbLine
 10
3.18808184538638
 20
56.93644719473559
 30
0.0
 11
3.09055197129558
 21
56.96460164426577
 31
0.0
  0
LINE
  5
D4
330
47
100
AcDbEntity
  8
0
  6
Continuous
 62
     7
100
AcDbLine
 10
3.48498009173528
 20
56.73292797235771
 30
0.0
 11
2.38700834688578
 21
55.78205654868049
 31
0.0
  0
LINE
  5
D5
330
47
100
AcDbEntity
  8
0
  6
Continuous
 62
     7
100
AcDbLine
 10
16.97953640065359
 20
45.29087237124332
 30
0.0
 11
16.42528014223149
 21
45.45087237124331
 31
0.0
  0
LINE
  5
D6
330
47
100
AcDbEntity
  8
0
  6
Continuous
 62
     7
100
AcDbLine
 10
2.38700834688578
 20
55.78205654868049
 30
0.0
 11
-2.63593899506392
 21
57.23205654868048
 31
0.0
  0
LINE
  5
D7
330
47
100
AcDbEntity
  8
0
  6
Continuous
 62
     7
100
AcDbLine
 10
3.62109454727857
 20
54.34327479394995
 30
0.0
 11
3.62109454727857
 21
56.37843449284337
 31
0.0
  0
LINE
  5
D8
330
47
100
AcDbEntity
  8
0
  6
Continuous
 62
     7
100
AcDbLine
 10
-7.22118289513512
 20
50.84807635500205
 30
0.0
 11
-13.40063476410452
 21
52.63193045499897
 31
0.0
  0
LINE
  5
D9
330
47
100
AcDbEntity
  8
0
  6
Continuous
 62
     7
100
AcDbLine
 10
-13.40063476410452
 20
52.63193045499897
 30
0.0
 11
-13.40063476410452
 21
56.74555112297506
 31
0.0
  0
LINE
  5
DA
330
47
100
AcDbEntity
  8
0
  6
Continuous
 62
     7
100
AcDbLine
 10
19.53431134181767
 20
43.12443045499898
 30
0.0
 11
22.84013450343659
 21
45.98735729337999
 31
0.0
  0
LINE
  5
DB
330
47
100
AcDbEntity
  8
0
  6
Continuous
 62
     7
100
AcDbLine
 10
26.73964270130418
 20
48.7520565486805
 30
0.0
 11
26.73964270130418
 21
44.07551936824452
 31
0.0
  0
LINE
  5
DC
330
47
100
AcDbEntity
  8
0
  6
Continuous
 62
     7
100
AcDbLine
 10
26.73964270130418
 20
44.07551936824452
 30
0.0
 11
23.62628137469909
 21
44.97426936824451
 31
0.0
  0
LINE
  5
DD
330
47
100
AcDbEntity
  8
0
  6
Continuous
 62
     7
100
AcDbLine
 10
19.53431134181767
 20
43.12443045499898
 30
0.0
 11
16.97953640065359
 21
43.86193045499898
 31
0.0
  0
LINE
  5
DE
330
47
100
AcDbEntity
  8
0
  6
Continuous
 62
     7
100
AcDbLine
 10
23.30306134181768
 20
47.49244608533672
 30
0.0
 11
19.53431134181767
 21
44.22861284482413
 31
0.0
  0
LINE
  5
DF
330
47
100
AcDbEntity
  8
0
  6
Continuous
 62
     7
100
AcDbLine
 10
21.44950372068229
 20
48.02752208109721
 30
0.0
 11
19.27450372068228
 21
46.14391682786607
 31
0.0
  0
LINE
  5
E0
330
47
100
AcDbEntity
  8
0
  6
Continuous
 62
     7
100
AcDbLine
 10
19.27450372068228
 20
46.14391682786607
 30
0.0
 11
19.27450372068228
 21
45.71090412597386
 31
0.0
  0
LINE
  5
E1
330
47
100
AcDbEntity
  8
0
  6
Continuous
 62
     7
100
AcDbLine
 10
21.82450372068229
 20
47.91926890562415
 30
0.0
 11
19.27450372068228
 21
45.71090412597386
 31
0.0
  0
LINE
  5
E2
330
47
100
AcDbEntity
  8
0
  6
Continuous
 62
     7
100
AcDbLine
 10
22.21338212746557
 20
47.80700937920499
 30
0.0
 11
18.53838212746558
 21
44.62436602029719
 31
0.0
  0
LINE
  5
E3
330
47
100
AcDbEntity
  8
0
  6
Continuous
 62
     7
100
AcDbLine
 10
22.80355724110387
 20
46.03449350183972
 30
0.0
 11
22.80355724110387
 21
46.42420493354273
 31
0.0
  0
LINE
  5
E4
330
47
100
AcDbEntity
  8
0
  6
Continuous
 62
     7
100
AcDbLine
 10
23.62628137469909
 20
44.97426936824451
 30
0.0
 11
22.80355724110387
 21
46.03449350183972
 31
0.0
  0
LINE
  5
E5
330
47
100
AcDbEntity
  8
0
  6
Continuous
 62
     7
100
AcDbLine
 10
22.80355724110387
 20
46.42420493354273
 30
0.0
 11
23.49204743711258
 21
46.39757748254488
 31
0.0
  0
LINE
  5
E6
330
47
100
AcDbEntity
  8
0
  6
Continuous
 62
     7
100
AcDbLine
 10
23.49204743711258
 20
47.02045493354275
 30
0.0
 11
22.80355724110387
 21
46.42420493354273
 31
0.0
  0
LINE
  5
E7
330
47
100
AcDbEntity
  8
0
  6
Continuous
 62
     7
100
AcDbLine
 10
23.49204743711258
 20
47.43789049884093
 30
0.0
 11
19.96732404370988
 21
48.45539049884093
 31
0.0
  0
LINE
  5
E8
330
47
100
AcDbEntity
  8
0
  6
Continuous
 62
     7
100
AcDbLine
 10
19.96732404370988
 20
48.45539049884093
 30
0.0
 11
19.51266070672307
 21
50.63749427929078
 31
0.0
  0
LINE
  5
E9
330
47
100
AcDbEntity
  8
0
  6
Continuous
 62
     7
100
AcDbLine
 10
23.49204743711258
 20
46.39757748254488
 30
0.0
 11
23.49204743711258
 21
47.43789049884093
 31
0.0
  0
LINE
  5
EA
330
47
100
AcDbEntity
  8
0
  6
Continuous
 62
     7
100
AcDbLine
 10
2.67229381942668
 20
56.76440160468069
 30
0.0
 11
2.38700834688578
 21
55.78205654868049
 31
0.0
  0
LINE
  5
EB
330
47
100
AcDbEntity
  8
0
  6
Continuous
 62
     7
100
AcDbLine
 10
3.62109454727857
 20
54.70326234903808
 30
0.0
 11
2.90302935664768
 21
54.08139965237841
 31
0.0
  0
LINE
  5
EC
330
47
100
AcDbEntity
  8
0
  6
Continuous
 62
     2
100
AcDbLine
 10
3.62109454727857
 20
54.38346717281459
 30
0.0
 11
3.36128692614328
 21
54.1584671728146
 31
0.0
  0
LINE
  5
ED
330
47
100
AcDbEntity
  8
0
  6
Continuous
 62
     7
100
AcDbLine
 10
-4.01552967554922
 20
58.16505278612246
 30
0.0
 11
-5.75363044868791
 21
56.65981336224692
 31
0.0
  0
LINE
  5
EE
330
47
100
AcDbEntity
  8
0
  6
Continuous
 62
     7
100
AcDbLine
 10
-3.52880034448143
 20
57.98071168663296
 30
0.0
 11
-5.75363044868791
 21
56.0539522972857
 31
0.0
  0
LINE
  5
EF
330
47
100
AcDbEntity
  8
0
  6
Continuous
 62
     2
100
AcDbLine
 10
18.58477634552548
 20
52.48736306427195
 30
0.0
 11
18.21362260104638
 21
52.16593449284337
 31
0.0
  0
LINE
  5
F0
330
47
100
AcDbEntity
  8
0
  6
Continuous
 62
     7
100
AcDbLine
 10
18.21362260104638
 20
51.23549231558241
 30
0.0
 11
19.32712734783539
 21
52.19981571353624
 31
0.0
  0
LINE
  5
F1
330
47
100
AcDbEntity
  8
0
  6
Continuous
 62
     2
100
AcDbLine
 10
5.33311263720557
 20
52.38245908609921
 30
0.0
 11
4.31138868091638
 21
51.4976201842976
 31
0.0
  0
LINE
  5
F2
330
47
100
AcDbEntity
  8
0
  6
Continuous
 62
     7
100
AcDbLine
 10
5.50942454121898
 20
52.36132342387058
 30
0.0
 11
4.22936617707558
 21
51.25276036219566
 31
0.0
  0
LINE
  5
F3
330
47
100
AcDbEntity
  8
0
  6
Continuous
 62
     7
100
AcDbLine
 10
-12.10159665842792
 20
53.16625712897262
 30
0.0
 11
-12.10159665842792
 21
56.37055112297505
 31
0.0
  0
LINE
  5
F4
330
47
100
AcDbEntity
  8
0
  6
Continuous
 62
     7
100
AcDbLine
 10
-5.66702790830952
 20
54.64295493354273
 30
0.0
 11
-5.66702790830952
 21
54.46974985278499
 31
0.0
  0
LINE
  5
F5
330
47
100
AcDbEntity
  8
0
  6
Continuous
 62
     7
100
AcDbLine
 10
-6.70625839285083
 20
59.1841240820462
 30
0.0
 11
-6.70625839285083
 21
58.15412152797147
 31
0.0
  0
LINE
  5
F6
330
47
100
AcDbEntity
  8
0
  6
Continuous
 62
     7
100
AcDbLine
 10
-7.91869395814902
 20
51.95875712897264
 30
0.0
 11
-12.10159665842792
 21
53.16625712897262
 31
0.0
  0
LINE
  5
F7
330
47
100
AcDbEntity
  8
0
  6
Continuous
 62
     7
100
AcDbLine
 10
-12.10159665842792
 20
53.16625712897262
 30
0.0
 11
-7.91869395814902
 21
56.78875712897263
 31
0.0
  0
LINE
  5
F8
330
47
100
AcDbEntity
  8
0
  6
Continuous
 62
     7
100
AcDbLine
 10
-7.22118289513512
 20
50.84807635500205
 30
0.0
 11
-0.54618289513512
 21
56.62879592526317
 31
0.0
  0
LINE
  5
F9
330
47
100
AcDbEntity
  8
0
  6
Continuous
 62
     7
100
AcDbLine
 10
33.18150083587108
 20
92.39781584189222
 30
0.0
 11
35.16081046640537
 21
92.04414047382959
 31
0.0
  0
LINE
  5
FA
330
47
100
AcDbEntity
  8
0
  6
Continuous
 62
     7
100
AcDbLine
 10
22.36878223796049
 20
90.74342735929642
 30
0.0
 11
23.17128223796047
 21
90.97508915480878
 31
0.0
  0
LINE
  5
FB
330
47
100
AcDbEntity
  8
0
  6
Continuous
 62
     7
100
AcDbLine
 10
30.55903473522037
 20
101.3430680738546
 30
0.0
 11
32.07805934898377
 21
98.27353563003764
 31
0.0
  0
LINE
  5
FC
330
47
100
AcDbEntity
  8
0
  6
Continuous
 62
     7
100
AcDbLine
 10
32.53950083587108
 20
91.84182753266262
 30
0.0
 11
30.25786897951807
 21
96.45238021526225
 31
0.0
  0
LINE
  5
FD
330
47
100
AcDbEntity
  8
0
  6
Continuous
 62
     7
100
AcDbLine
 10
33.18150083587108
 20
92.39781584189222
 30
0.0
 11
25.68150083587108
 21
85.90262531350893
 31
0.0
  0
LINE
  5
FE
330
47
100
AcDbEntity
  8
0
  6
Continuous
 62
     7
100
AcDbLine
 10
27.66081046640537
 20
85.5489499454463
 30
0.0
 11
35.16081046640537
 21
92.04414047382959
 31
0.0
  0
LINE
  5
FF
330
47
100
AcDbEntity
  8
0
  6
Continuous
 62
     7
100
AcDbLine
 10
37.40063542511737
 20
87.51806807385461
 30
0.0
 11
35.16081046640537
 21
92.04414047382959
 31
0.0
  0
LINE
  5
100
330
47
100
AcDbEntity
  8
0
  6
Continuous
 62
     7
100
AcDbLine
 10
34.23964270130418
 20
50.57070989662781
 30
0.0
 11
34.23964270130418
 21
51.59724707706378
 31
0.0
  0
LINE
  5
101
330
47
100
AcDbEntity
  8
0
  6
Continuous
 62
     7
100
AcDbLine
 10
37.40063542511737
 20
87.51806807385461
 30
0.0
 11
37.40063542511737
 21
54.33474707706378
 31
0.0
  0
LINE
  5
102
330
47
100
AcDbEntity
  8
0
  6
Continuous
 62
     7
100
AcDbLine
 10
30.37313542511737
 20
61.77466139011465
 30
0.0
 11
33.11185562803587
 21
64.14646265969974
 31
0.0
  0
LINE
  5
103
330
47
100
AcDbEntity
  8
0
  6
Continuous
 62
     7
100
AcDbLine
 10
36.91313542511739
 20
63.04912770264469
 30
0.0
 11
30.37313542511737
 21
57.38532156189446
 31
0.0
  0
LINE
  5
104
330
47
100
AcDbEntity
  8
0
  6
Continuous
 62
     7
100
AcDbLine
 10
31.81657592384599
 20
65.8156574068346
 30
0.0
 11
30.37313542511737
 21
66.5373776561989
 31
0.0
  0
LINE
  5
105
330
47
100
AcDbEntity
  8
0
  6
Continuous
 62
     7
100
AcDbLine
 10
30.37313542511737
 20
76.78624510117251
 30
0.0
 11
31.81657592384599
 21
78.74349643041025
 31
0.0
  0
LINE
  5
106
330
47
100
AcDbEntity
  8
0
  6
Continuous
 62
     7
100
AcDbLine
 10
31.81657592384599
 20
65.8156574068346
 30
0.0
 11
31.81657592384599
 21
78.74349643041025
 31
0.0
  0
LINE
  5
107
330
47
100
AcDbEntity
  8
0
  6
Continuous
 62
     7
100
AcDbLine
 10
29.90063542511737
 20
81.02287754547132
 30
0.0
 11
30.37313542511737
 21
81.43207454875947
 31
0.0
  0
LINE
  5
108
330
47
100
AcDbEntity
  8
0
  6
Continuous
 62
     7
100
AcDbLine
 10
30.37313542511737
 20
81.43207454875947
 30
0.0
 11
36.91313542511739
 21
87.0958806895097
 31
0.0
  0
LINE
  5
109
330
47
100
AcDbEntity
  8
0
  6
Continuous
 62
     7
100
AcDbLine
 10
33.11185562803587
 20
64.14646265969974
 30
0.0
 11
31.81657592384599
 21
65.8156574068346
 31
0.0
  0
LINE
  5
10A
330
47
100
AcDbEntity
  8
0
  6
Continuous
 62
     7
100
AcDbLine
 10
33.11185562803587
 20
64.14646265969974
 30
0.0
 11
36.91313542511739
 21
63.04912770264469
 31
0.0
  0
LINE
  5
10B
330
47
100
AcDbEntity
  8
0
  6
Continuous
 62
     7
100
AcDbLine
 10
36.91313542511739
 20
63.04912770264469
 30
0.0
 11
36.91313542511739
 21
87.0958806895097
 31
0.0
  0
LINE
  5
10C
330
47
100
AcDbEntity
  8
0
  6
Continuous
 62
     7
100
AcDbLine
 10
25.91008757742878
 20
85.44071415480876
 30
0.0
 11
25.10758757742877
 21
85.20905235929642
 31
0.0
  0
LINE
  5
10D
330
47
100
AcDbEntity
  8
0
  6
Continuous
 62
     7
100
AcDbLine
 10
25.74958757742877
 20
85.76504066852604
 30
0.0
 11
25.10758757742877
 21
85.20905235929642
 31
0.0
  0
LINE
  5
10E
330
47
100
AcDbEntity
  8
0
  6
Continuous
 62
     7
100
AcDbLine
 10
36.91313542511739
 20
87.0958806895097
 30
0.0
 11
37.40063542511737
 21
87.51806807385461
 31
0.0
  0
LINE
  5
10F
330
47
100
AcDbEntity
  8
0
  6
Continuous
 62
     7
100
AcDbLine
 10
31.81657592384599
 20
78.74349643041025
 30
0.0
 11
36.91313542511739
 21
87.0958806895097
 31
0.0
  0
LINE
  5
110
330
47
100
AcDbEntity
  8
0
  6
Continuous
 62
     7
100
AcDbLine
 10
29.90063542511737
 20
47.83955654868051
 30
0.0
 11
37.40063542511737
 21
54.33474707706378
 31
0.0
  0
LINE
  5
111
330
47
100
AcDbEntity
  8
0
  6
Continuous
 62
     7
100
AcDbLine
 10
26.73964270130418
 20
44.07551936824452
 30
0.0
 11
34.23964270130418
 21
50.57070989662781
 31
0.0
  0
LINE
  5
112
330
47
100
AcDbEntity
  8
0
  6
Continuous
 62
     7
100
AcDbLine
 10
-6.65063476410452
 20
99.06854902101625
 30
0.0
 11
-6.65063476410452
 21
95.5001879423287
 31
0.0
  0
LINE
  5
113
330
47
100
AcDbEntity
  8
0
  6
Continuous
 62
     7
100
AcDbLine
 10
6.19318999651839
 20
99.7166275454713
 30
0.0
 11
23.05903473522037
 21
94.8478775454713
 31
0.0
  0
LINE
  5
114
330
47
100
AcDbEntity
  8
0
  6
Continuous
 62
     7
100
AcDbLine
 10
12.94318999651839
 20
105.5622990210163
 30
0.0
 11
6.19318999651839
 21
99.7166275454713
 31
0.0
  0
LINE
  5
115
330
47
100
AcDbEntity
  8
0
  6
Continuous
 62
     7
100
AcDbLine
 10
0.36417100654938
 20
109.1935490210163
 30
0.0
 11
-6.65063476410452
 21
99.06854902101625
 31
0.0
  0
LINE
  5
116
330
47
100
AcDbEntity
  8
0
  6
Continuous
 62
     7
100
AcDbLine
 10
1.11417100654938
 20
109.8430680738546
 30
0.0
 11
30.55903473522037
 21
101.3430680738546
 31
0.0
  0
SPLINE
  5
117
330
47
100
AcDbEntity
  8
0
  6
Continuous
 62
     7
100
AcDbSpline
210
0.0
220
0.0
230
1.0
 70
     8
 71
     3
 72
     9
 73
     5
 74
     3
 42
0.000000001
 43
0.0000000001
 44
0.00000001
 40
0.0
 40
0.0
 40
0.0
 40
0.0
 40
0.5324243061152144
 40
0.9874134480626657
 40
0.9874134480626657
 40
0.9874134480626657
 40
0.9874134480626657
 10
23.69134328159637
 20
98.99547280966294
 30
0.0
 10
23.8229047627224
 20
99.1227177830646
 30
0.0
 10
24.06689356182724
 20
99.3587013811015
 30
0.0
 10
24.12163340555033
 20
99.69192641481607
 30
0.0
 10
24.14685690872929
 20
99.84547280966295
 30
0.0
 11
23.69134328159637
 21
98.99547280966294
 31
0.0
 11
24.03100384253937
 21
99.40548055029318
 31
0.0
 11
24.14685690872929
 21
99.84547280966295
 31
0.0
  0
SPLINE
  5
118
330
47
100
AcDbEntity
  8
0
  6
Continuous
 62
     7
100
AcDbSpline
210
0.0
220
0.0
230
1.0
 70
     8
 71
     3
 72
    11
 73
     7
 74
     5
 42
0.000000001
 43
0.0000000001
 44
0.00000001
 40
0.0
 40
0.0
 40
0.0
 40
0.0
 40
0.26328576358245
 40
0.53943021586897
 40
0.8388560017330915
 40
1.168410710496927
 40
1.168410710496927
 40
1.168410710496927
 40
1.168410710496927
 10
-7.725956937613418
 20
91.03303323795502
 30
0.0
 10
-7.719113319541063
 20
91.12104369063007
 30
0.0
 10
-7.705091831294466
 20
91.30136296155406
 30
0.0
 10
-7.593923398541154
 20
91.56232726543264
 30
0.0
 10
-7.423769400508414
 20
91.81375732873077
 30
0.0
 10
-7.27041085859968
 20
91.95764382621373
 30
0.0
 10
-7.190058552751225
 20
92.03303323795502
 30
0.0
 11
-7.725956937613418
 21
91.03303323795502
 31
0.0
 11
-7.691736366599898
 21
91.29408562130841
 31
0.0
 11
-7.589660242769725
 21
91.55067132816006
 31
0.0
 11
-7.421475052274873
 21
91.79840009949912
 31
0.0
 11
-7.190058552751225
 21
92.03303323795502
 31
0.0
  0
SPLINE
  5
119
330
47
100
AcDbEntity
  8
0
  6
Continuous
 62
     7
100
AcDbSpline
210
0.0
220
0.0
230
1.0
 70
     8
 71
     3
 72
    15
 73
    11
 74
     9
 42
0.000000001
 43
0.0000000001
 44
0.00000001
 40
0.0
 40
0.0
 40
0.0
 40
0.0
 40
0.7323415838643831
 40
1.501166804998071
 40
2.284989057019223
 40
3.061284336899882
 40
3.808044664140787
 40
4.505379523782249
 40
5.13734050718177
 40
5.69427681361925
 40
5.69427681361925
 40
5.69427681361925
 40
5.69427681361925
 10
-1.450956937613526
 20
93.00324103156461
 30
0.0
 10
-1.68800499983209
 20
93.06256101196402
 30
0.0
 10
-2.173910337454596
 20
93.1841561479623
 30
0.0
 10
-2.933341135885009
 20
93.26594756317687
 30
0.0
 10
-3.710410868332375
 20
93.27999575764113
 30
0.0
 10
-4.4780515020985
 20
93.21697714172781
 30
0.0
 10
-5.207672981116957
 20
93.08264887348422
 30
0.0
 10
-5.869422782001115
 20
92.87789854177447
 30
0.0
 10
-6.448708881820712
 20
92.62198084968213
 30
0.0
 10
-6.766288899863237
 20
92.38309553004784
 30
0.0
 10
-6.915058552751219
 20
92.27119022399575
 30
0.0
 11
-1.450956937613526
 21
93.00324103156461
 31
0.0
 11
-2.165199137385155
 21
93.16505039315895
 31
0.0
 11
-2.928852168733272
 21
93.25407994674336
 31
0.0
 11
-3.712569442125582
 21
93.26690797581477
 31
0.0
 11
-4.48623311802357
 21
93.20304187657388
 31
0.0
 11
-5.220111614577331
 21
93.0649356219826
 31
0.0
 11
-5.886002653648326
 21
92.85789690457821
 31
0.0
 11
-6.458316024888386
 21
92.58988179164949
 31
0.0
 11
-6.915058552751219
 21
92.27119022399575
 31
0.0
  0
SPLINE
  5
11A
330
47
100
AcDbEntity
  8
0
  6
Continuous
 62
     7
100
AcDbSpline
210
0.0
220
0.0
230
1.0
 70
     8
 71
     3
 72
    13
 73
     9
 74
     7
 42
0.000000001
 43
0.0000000001
 44
0.00000001
 40
0.0
 40
0.0
 40
0.0
 40
0.0
 40
0.6051425855255957
 40
1.15636394013108
 40
1.647782533047567
 40
2.079824559419737
 40
2.461874876829677
 40
2.814447749586106
 40
2.814447749586106
 40
2.814447749586106
 40
2.814447749586106
 10
-5.725956937613418
 20
89.30098243038616
 30
0.0
 10
-5.918275780653107
 20
89.3626470987324
 30
0.0
 10
-6.285776892843224
 20
89.48048181364666
 30
0.0
 10
-6.779243403253003
 20
89.72627537245549
 30
0.0
 10
-7.185357388547024
 20
90.00829870031642
 30
0.0
 10
-7.486720191410432
 20
90.32476132947129
 30
0.0
 10
-7.687173768163841
 20
90.66920287850118
 30
0.0
 10
-7.713379731924142
 20
90.91504466131225
 30
0.0
 10
-7.725956937613418
 20
91.03303323795502
 30
0.0
 11
-5.725956937613418
 21
89.30098243038616
 31
0.0
 11
-6.297107316211241
 21
89.50094438755809
 31
0.0
 11
-6.790134710089376
 21
89.74745801858194
 31
0.0
 11
-7.190058471713535
 21
90.03303326134858
 31
0.0
 11
-7.484727420757068
 21
90.34899295130369
 31
0.0
 11
-7.665187857509649
 21
90.68573689074567
 31
0.0
 11
-7.725956937613418
 21
91.03303323795502
 31
0.0
  0
SPLINE
  5
11B
330
47
100
AcDbEntity
  8
0
  6
Continuous
 62
     7
100
AcDbSpline
210
0.0
220
0.0
230
1.0
 70
     8
 71
     3
 72
     9
 73
     5
 74
     3
 42
0.000000001
 43
0.0000000001
 44
0.00000001
 40
0.0
 40
0.0
 40
0.0
 40
0.0
 40
0.9131749713158599
 40
1.874622558627814
 40
1.874622558627814
 40
1.874622558627814
 40
1.874622558627814
 10
4.341588381380674
 20
86.39473243038616
 30
0.0
 10
4.637944191532585
 20
86.32194479460334
 30
0.0
 10
5.246321893264884
 20
86.172521813911
 30
0.0
 10
5.872195095578404
 20
86.1431990187972
 30
0.0
 10
6.193189996518385
 20
86.1281600919261
 30
0.0
 11
4.341588381380674
 21
86.39473243038616
 31
0.0
 11
5.234807329643537
 21
86.20486816338382
 31
0.0
 11
6.193189996518385
 21
86.1281600919261
 31
0.0
  0
SPLINE
  5
11C
330
47
100
AcDbEntity
  8
0
  6
Continuous
 62
     7
100
AcDbSpline
210
0.0
220
0.0
230
1.0
 70
     8
 71
     3
 72
    11
 73
     7
 74
     5
 42
0.000000001
 43
0.0000000001
 44
0.00000001
 40
0.0
 40
0.0
 40
0.0
 40
0.0
 40
0.7911828364561971
 40
1.62286992363683
 40
2.467925540592391
 40
3.298142067694625
 40
3.298142067694625
 40
3.298142067694625
 40
3.298142067694625
 10
-1.450956937613526
 20
88.84631909339932
 30
0.0
 10
-1.707281386439551
 20
88.90977815488871
 30
0.0
 10
-2.233052702552997
 20
89.03994502123973
 30
0.0
 10
-3.054444199060574
 20
89.1166660837616
 30
0.0
 10
-3.892040923811937
 20
89.12149881549226
 30
0.0
 10
-4.446172102136283
 20
89.04749033412465
 30
0.0
 10
-4.720783521414418
 20
89.01081385917375
 30
0.0
 11
-1.450956937613526
 21
88.84631909339932
 31
0.0
 11
-2.223344060627849
 21
89.01774958613316
 31
0.0
 11
-3.050523631808169
 21
89.10422137369468
 31
0.0
 11
-3.895575990619875
 21
89.10187435317961
 31
0.0
 11
-4.720783521414418
 21
89.01081385917375
 31
0.0
  0
SPLINE
  5
11D
330
47
100
AcDbEntity
  8
0
  6
Continuous
 62
     7
100
AcDbSpline
210
0.0
220
0.0
230
1.0
 70
     8
 71
     3
 72
     9
 73
     5
 74
     3
 42
0.000000001
 43
0.0000000001
 44
0.00000001
 40
0.0
 40
0.0
 40
0.0
 40
0.0
 40
0.0646620654033266
 40
0.1291335368082718
 40
0.1291335368082718
 40
0.1291335368082718
 40
0.1291335368082718
 10
1.708521065370178
 20
87.6070707017162
 30
0.0
 10
1.706158125600516
 20
87.62850813450868
 30
0.0
 10
1.701439230841199
 20
87.67131981397657
 30
0.0
 10
1.700758531043324
 20
87.71438530433744
 30
0.0
 10
1.700418693447773
 20
87.73588626883952
 30
0.0
 11
1.708521065370178
 21
87.6070707017162
 31
0.0
 11
1.702444787048165
 21
87.6714466412006
 31
0.0
 11
1.700418693447773
 21
87.73588626883952
 31
0.0
  0
SPLINE
  5
11E
330
47
100
AcDbEntity
  8
0
  6
Continuous
 62
     7
100
AcDbSpline
210
0.0
220
0.0
230
1.0
 70
     8
 71
     3
 72
    15
 73
    11
 74
     9
 42
0.000000001
 43
0.0000000001
 44
0.00000001
 40
0.0
 40
0.0
 40
0.0
 40
0.0
 40
0.4331897922217126
 40
0.9162015086923188
 40
1.479036445068593
 40
2.130046935802152
 40
2.862221651258276
 40
3.658692335769466
 40
4.496459269142191
 40
5.349098460991858
 40
5.349098460991858
 40
5.349098460991858
 40
5.349098460991858
 10
1.700418693447773
 20
87.73588626883952
 30
0.0
 10
1.719301011776269
 20
87.8809592208
 30
0.0
 10
1.759237350787198
 20
88.1877902172951
 30
0.0
 10
2.054900111740164
 20
88.60223653179185
 30
0.0
 10
2.487591078903981
 20
88.96907337902638
 30
0.0
 10
3.061595611136781
 20
89.28069193701332
 30
0.0
 10
3.747101021821386
 20
89.52732385315679
 30
0.0
 10
4.518988395731226
 20
89.69752387246652
 30
0.0
 10
5.344883640506474
 20
89.79173867605579
 30
0.0
 10
5.908767520419477
 20
89.78158129702567
 30
0.0
 10
6.193189996518385
 20
89.77645792302646
 30
0.0
 11
1.700418693447773
 21
87.73588626883952
 31
0.0
 11
1.789081224283302
 21
88.15990555863101
 31
0.0
 11
2.051233098244978
 21
88.56558612009954
 31
0.0
 11
2.475537305593307
 21
88.93538215052098
 31
0.0
 11
3.043641802093425
 21
89.25330028380831
 31
0.0
 11
3.730976940611289
 21
89.50559023812374
 31
0.0
 11
4.50781491779513
 21
89.68134093800872
 31
0.0
 11
5.340558027718934
 21
89.77295069418915
 31
0.0
 11
6.193189996518385
 21
89.77645792302646
 31
0.0
  0
SPLINE
  5
11F
330
47
100
AcDbEntity
  8
0
  6
Continuous
 62
     7
100
AcDbSpline
210
0.0
220
0.0
230
1.0
 70
     8
 71
     3
 72
    11
 73
     7
 74
     5
 42
0.000000001
 43
0.0000000001
 44
0.00000001
 40
0.0
 40
0.0
 40
0.0
 40
0.0
 40
0.9640445088001788
 40
1.949938633287349
 40
2.975075556820179
 40
4.050672365262522
 40
4.050672365262522
 40
4.050672365262522
 40
4.050672365262522
 10
-7.221182895135115
 20
50.84807635500205
 30
0.0
 10
-6.993403458102431
 20
51.07687323997084
 30
0.0
 10
-6.532682081274903
 20
51.53965259359059
 30
0.0
 10
-6.056854822694038
 20
52.42259059865026
 30
0.0
 10
-5.74074787777266
 20
53.40995468599108
 30
0.0
 10
-5.691991603742631
 20
54.11087275026293
 30
0.0
 10
-5.667027908309521
 20
54.46974985278499
 30
0.0
 11
-7.221182895135115
 21
50.84807635500205
 31
0.0
 11
-6.574228377274373
 21
51.56280124589413
 31
0.0
 11
-6.090935200736624
 21
52.42211197822692
 31
0.0
 11
-5.7855371589445
 21
53.40070165323609
 31
0.0
 11
-5.667027908309521
 21
54.46974985278499
 31
0.0
  0
SPLINE
  5
120
330
47
100
AcDbEntity
  8
0
  6
Continuous
 62
     7
100
AcDbSpline
210
0.0
220
0.0
230
1.0
 70
     8
 71
     3
 72
    11
 73
     7
 74
     5
 42
0.000000001
 43
0.0000000001
 44
0.00000001
 40
0.0
 40
0.0
 40
0.0
 40
0.0
 40
0.0935705952109554
 40
0.1815181363976455
 40
0.2647690944696561
 40
0.3453217744506556
 40
0.3453217744506556
 40
0.3453217744506556
 40
0.3453217744506556
 10
3.090551971295582
 20
56.96460164426577
 30
0.0
 10
3.060021664039207
 20
56.97164204458229
 30
0.0
 10
3.000795742891665
 20
56.98529974330241
 30
0.0
 10
2.911763467285168
 20
56.98082625422786
 30
0.0
 10
2.82952623176846
 20
56.95786163976457
 30
0.0
 10
2.785081457764508
 20
56.92547834819566
 30
0.0
 10
2.763225135941582
 20
56.90955341538277
 30
0.0
 11
3.090551971295582
 21
56.96460164426577
 31
0.0
 11
2.998479530153494
 21
56.98127863254645
 31
0.0
 11
2.910618043502225
 21
56.97738895835124
 31
0.0
 11
2.830985933187359
 21
56.95311037725428
 31
0.0
 11
2.763225135941582
 21
56.90955341538277
 31
0.0
  0
SPLINE
  5
121
330
47
100
AcDbEntity
  8
0
  6
Continuous
 62
     7
100
AcDbSpline
210
0.0
220
0.0
230
1.0
 70
     8
 71
     3
 72
    11
 73
     7
 74
     5
 42
0.000000001
 43
0.0000000001
 44
0.00000001
 40
0.0
 40
0.0
 40
0.0
 40
0.0
 40
0.09357059521091
 40
0.1815181363975986
 40
0.2647690944696194
 40
0.3453217744506487
 40
0.3453217744506487
 40
0.3453217744506487
 40
0.3453217744506487
 10
18.64663530293859
 20
52.47394719473559
 30
0.0
 10
18.61610499568224
 20
52.4809875950521
 30
0.0
 10
18.5568790745347
 20
52.49464529377219
 30
0.0
 10
18.46784679892822
 20
52.49017180469771
 30
0.0
 10
18.3856095634115
 20
52.46720719023438
 30
0.0
 10
18.34116478940754
 20
52.43482389866547
 30
0.0
 10
18.31930846758459
 20
52.41889896585259
 30
0.0
 11
18.64663530293859
 21
52.47394719473559
 31
0.0
 11
18.55456286179655
 21
52.49062418301626
 31
0.0
 11
18.46670137514528
 21
52.48673450882107
 31
0.0
 11
18.38706926483041
 21
52.4624559277241
 31
0.0
 11
18.31930846758459
 21
52.41889896585259
 31
0.0
  0
SPLINE
  5
122
330
47
100
AcDbEntity
  8
0
  6
Continuous
 62
     7
100
AcDbSpline
210
0.0
220
0.0
230
1.0
 70
     8
 71
     3
 72
     9
 73
     5
 74
     3
 42
0.000000001
 43
0.0000000001
 44
0.00000001
 40
0.0
 40
0.0
 40
0.0
 40
0.0
 40
0.1347351597550951
 40
0.2806984683897773
 40
0.2806984683897773
 40
0.2806984683897773
 40
0.2806984683897773
 10
18.31930846758459
 20
52.41889896585259
 30
0.0
 10
18.28891598388346
 20
52.3841974995625
 30
0.0
 10
18.22559827680988
 20
52.3119027121386
 30
0.0
 10
18.2177195384291
 20
52.21587101453193
 30
0.0
 10
18.21362260104638
 20
52.16593449284337
 30
0.0
 11
18.31930846758459
 21
52.41889896585259
 31
0.0
 11
18.24090414176742
 21
52.30932558611859
 31
0.0
 11
18.21362260104638
 21
52.16593449284337
 31
0.0
  0
SPLINE
  5
123
330
47
100
AcDbEntity
  8
0
  6
Continuous
 62
     7
100
AcDbSpline
210
0.0
220
0.0
230
1.0
 70
     8
 71
     3
 72
    13
 73
     9
 74
     7
 42
0.000000001
 43
0.0000000001
 44
0.00000001
 40
0.0
 40
0.0
 40
0.0
 40
0.0
 40
0.1172631642635445
 40
0.2419307378212697
 40
0.3712960139460995
 40
0.5017221147109183
 40
0.6293737711447702
 40
0.7509434390751456
 40
0.7509434390751456
 40
0.7509434390751456
 40
0.7509434390751456
 10
19.51266070672307
 20
51.79093449284337
 30
0.0
 10
19.50958633246888
 20
51.83008485536783
 30
0.0
 10
19.50324344245077
 20
51.91085767034359
 30
0.0
 10
19.45737340934958
 20
52.02750558465348
 30
0.0
 10
19.38910392986785
 20
52.13671333538801
 30
0.0
 10
19.2995055096798
 20
52.2306517409903
 30
0.0
 10
19.19610357513739
 20
52.30605477085518
 30
0.0
 10
19.11782979997858
 20
52.33488424235191
 30
0.0
 10
19.07964800483089
 20
52.34894719473559
 30
0.0
 11
19.51266070672307
 21
51.79093449284337
 31
0.0
 11
19.49790604518969
 21
51.90726570088939
 31
0.0
 11
19.45464800483083
 21
52.02418766831642
 31
0.0
 11
19.38583414104776
 21
52.13373230497677
 31
0.0
 11
19.29615435577698
 21
52.22843449284336
 31
0.0
 11
19.19171990897283
 21
52.30184016118976
 31
0.0
 11
19.07964800483089
 21
52.34894719473559
 31
0.0
  0
SPLINE
  5
124
330
47
100
AcDbEntity
  8
0
  6
Continuous
 62
     7
100
AcDbSpline
210
0.0
220
0.0
230
1.0
 70
     8
 71
     3
 72
    11
 73
     7
 74
     5
 42
0.000000001
 43
0.0000000001
 44
0.00000001
 40
0.0
 40
0.0
 40
0.0
 40
0.0
 40
0.4826695327548296
 40
0.9661074661588542
 40
1.438159115350842
 40
1.888547215089364
 40
1.888547215089364
 40
1.888547215089364
 40
1.888547215089364
 10
14.99491368642308
 20
46.61907865441006
 30
0.0
 10
15.08231699907828
 20
46.48338485836736
 30
0.0
 10
15.25726278088733
 20
46.21178125308907
 30
0.0
 10
15.60551530852708
 20
45.87762550089467
 30
0.0
 10
15.99331301276284
 20
45.60719833070332
 30
0.0
 10
16.28356327844055
 20
45.50215873293379
 30
0.0
 10
16.42528014223149
 20
45.45087237124331
 30
0.0
 11
14.99491368642308
 21
46.61907865441006
 31
0.0
 11
15.27184984661645
 21
46.22376075504273
 31
0.0
 11
15.61651274419247
 21
45.88476263661831
 31
0.0
 11
16.00866511164677
 21
45.62199033554899
 31
0.0
 11
16.42528014223149
 21
45.45087237124331
 31
0.0
  0
SPLINE
  5
125
330
47
100
AcDbEntity
  8
0
  6
Continuous
 62
     7
100
AcDbSpline
210
0.0
220
0.0
230
1.0
 70
     8
 71
     3
 72
    11
 73
     7
 74
     5
 42
0.000000001
 43
0.0000000001
 44
0.00000001
 40
0.0
 40
0.0
 40
0.0
 40
0.0
 40
1.50171658912359
 40
3.011982928025902
 40
4.507380582629342
 40
5.965940896288402
 40
5.965940896288402
 40
5.965940896288402
 40
5.965940896288402
 10
14.99491368642308
 20
46.61907865441006
 30
0.0
 10
14.7283553911798
 20
47.04391989459369
 30
0.0
 10
14.19372118726324
 20
47.89602112268837
 30
0.0
 10
13.17270534199854
 20
49.00697387577299
 30
0.0
 10
12.0360064866801
 20
49.9782780545192
 30
0.0
 10
11.1774518794549
 20
50.46458064659687
 30
0.0
 10
10.75352787571597
 20
50.70469971743292
 30
0.0
 11
14.99491368642308
 21
46.61907865441006
 31
0.0
 11
14.15853733708714
 21
47.86632655200246
 31
0.0
 11
13.14801067251638
 21
48.98870807315016
 31
0.0
 11
11.99935774603002
 21
49.94621034701172
 31
0.0
 11
10.75352787571597
 21
50.70469971743292
 31
0.0
  0
SPLINE
  5
126
330
47
100
AcDbEntity
  8
0
  6
Continuous
 62
     7
100
AcDbSpline
210
0.0
220
0.0
230
1.0
 70
     8
 71
     3
 72
    13
 73
     9
 74
     7
 42
0.000000001
 43
0.0000000001
 44
0.00000001
 40
0.0
 40
0.0
 40
0.0
 40
0.0
 40
0.1172631642635388
 40
0.2419307378212706
 40
0.3712960139461192
 40
0.5017221147109413
 40
0.6293737711447535
 40
0.7509434390751843
 40
0.7509434390751843
 40
0.7509434390751843
 40
0.7509434390751843
 10
3.621094547278574
 20
56.37843449284337
 30
0.0
 10
3.618020173024406
 20
56.41758485536783
 30
0.0
 10
3.611677283006323
 20
56.49835767034358
 30
0.0
 10
3.565807249905135
 20
56.61500558465353
 30
0.0
 10
3.497537770423345
 20
56.72421333538799
 30
0.0
 10
3.407939350235312
 20
56.8181517409903
 30
0.0
 10
3.304537415692897
 20
56.8935547708552
 30
0.0
 10
3.22626364053409
 20
56.92238424235191
 30
0.0
 10
3.188081845386378
 20
56.93644719473559
 30
0.0
 11
3.621094547278574
 21
56.37843449284337
 31
0.0
 11
3.606339885745239
 21
56.49476570088939
 31
0.0
 11
3.563081845386378
 21
56.61168766831642
 31
0.0
 11
3.494267981603255
 21
56.72123230497677
 31
0.0
 11
3.404588196332484
 21
56.81593449284337
 31
0.0
 11
3.30015374952837
 21
56.88934016118975
 31
0.0
 11
3.188081845386378
 21
56.93644719473559
 31
0.0
  0
SPLINE
  5
127
330
47
100
AcDbEntity
  8
0
  6
Continuous
 62
     7
100
AcDbSpline
210
0.0
220
0.0
230
1.0
 70
     8
 71
     3
 72
     9
 73
     5
 74
     3
 42
0.000000001
 43
0.0000000001
 44
0.00000001
 40
0.0
 40
0.0
 40
0.0
 40
0.0
 40
0.0849727062785061
 40
0.173088721105765
 40
0.173088721105765
 40
0.173088721105765
 40
0.173088721105765
 10
2.763225135941582
 20
56.90955341538277
 30
0.0
 10
2.743133057755823
 20
56.88908514583024
 30
0.0
 10
2.702205671442414
 20
56.847391433236
 30
0.0
 10
2.682384416220013
 20
56.79239778076512
 30
0.0
 10
2.672293819426685
 20
56.76440160468069
 30
0.0
 11
2.763225135941582
 21
56.90955341538277
 31
0.0
 11
2.708035536612483
 21
56.84494328318102
 31
0.0
 11
2.672293819426685
 21
56.76440160468069
 31
0.0
  0
SPLINE
  5
128
330
47
100
AcDbEntity
  8
0
  6
Continuous
 62
     7
100
AcDbSpline
210
0.0
220
0.0
230
1.0
 70
     8
 71
     3
 72
    13
 73
     9
 74
     7
 42
0.000000001
 43
0.0000000001
 44
0.00000001
 40
0.0
 40
0.0
 40
0.0
 40
0.0
 40
0.1045567286507867
 40
0.2061418007536188
 40
0.3022745471528752
 40
0.3916590361757809
 40
0.474738988814957
 40
0.5539452715655799
 40
0.5539452715655799
 40
0.5539452715655799
 40
0.5539452715655799
 10
3.738798111959284
 20
51.36097450130403
 30
0.0
 10
3.763000898067007
 20
51.33573441365999
 30
0.0
 10
3.810718601080134
 20
51.28597160910726
 30
0.0
 10
3.897255126732216
 20
51.23240497594048
 30
0.0
 10
3.98796937486319
 20
51.19931187252342
 30
0.0
 10
4.077873875357902
 20
51.19097167742878
 30
0.0
 10
4.162676178370818
 20
51.20625148785699
 30
0.0
 10
4.207492760979462
 20
51.23750607589555
 30
0.0
 10
4.229366177075576
 20
51.25276036219566
 30
0.0
 11
3.738798111959284
 21
51.36097450130403
 31
0.0
 11
3.814312864983732
 21
51.28865831296064
 31
0.0
 11
3.900365148221184
 21
51.23467191184632
 31
0.0
 11
3.991035797711155
 21
51.20272917276234
 31
0.0
 11
4.080087826037875
 21
51.19502698540053
 31
0.0
 11
4.161395536932851
 21
51.21209553764931
 31
0.0
 11
4.229366177075576
 21
51.25276036219566
 31
0.0
  0
SPLINE
  5
129
330
47
100
AcDbEntity
  8
0
  6
Continuous
 62
     7
100
AcDbSpline
210
0.0
220
0.0
230
1.0
 70
     8
 71
     3
 72
    11
 73
     7
 74
     5
 42
0.000000001
 43
0.0000000001
 44
0.00000001
 40
0.0
 40
0.0
 40
0.0
 40
0.0
 40
0.0627418998186995
 40
0.1274830534601386
 40
0.1957283673663012
 40
0.2682168887433287
 40
0.2682168887433287
 40
0.2682168887433287
 40
0.2682168887433287
 10
4.229366177075576
 20
51.25276036219566
 30
0.0
 10
4.244104460333927
 20
51.26779813329416
 30
0.0
 10
4.2740506470532
 20
51.29835285959474
 30
0.0
 10
4.301513618806974
 20
51.35872693000709
 30
0.0
 10
4.315892225024974
 20
51.42637654244788
 30
0.0
 10
4.312919741336498
 20
51.4733997116471
 30
0.0
 10
4.31138868091638
 20
51.4976201842976
 30
0.0
 11
4.229366177075576
 21
51.25276036219566
 31
0.0
 11
4.270660132290219
 21
51.29999758793889
 31
0.0
 11
4.298805185645278
 21
51.35830087519436
 31
0.0
 11
4.312580500061802
 21
51.42514146083164
 31
0.0
 11
4.31138868091638
 21
51.4976201842976
 31
0.0
  0
SPLINE
  5
12A
330
47
100
AcDbEntity
  8
0
  6
Continuous
 62
     7
100
AcDbSpline
210
0.0
220
0.0
230
1.0
 70
     8
 71
     3
 72
     9
 73
     5
 74
     3
 42
0.000000001
 43
0.0000000001
 44
0.00000001
 40
0.0
 40
0.0
 40
0.0
 40
0.0
 40
0.0808410949936723
 40
0.1684190793151125
 40
0.1684190793151125
 40
0.1684190793151125
 40
0.1684190793151125
 10
3.557683027355679
 20
54.19149611014439
 30
0.0
 10
3.575918517382497
 20
54.21231698969711
 30
0.0
 10
3.613909134566339
 20
54.25569386555195
 30
0.0
 10
3.618636384873067
 20
54.3133128812308
 30
0.0
 10
3.621094547278574
 20
54.34327479394995
 30
0.0
 11
3.557683027355679
 21
54.19149611014439
 31
0.0
 11
3.604725622845963
 21
54.2572401379848
 31
0.0
 11
3.621094547278574
 21
54.34327479394995
 31
0.0
  0
SPLINE
  5
12B
330
47
100
AcDbEntity
  8
0
  6
Continuous
 62
     7
100
AcDbSpline
210
0.0
220
0.0
230
1.0
 70
     8
 71
     3
 72
    11
 73
     7
 74
     5
 42
0.000000001
 43
0.0000000001
 44
0.00000001
 40
0.0
 40
0.0
 40
0.0
 40
0.0
 40
0.0561423569815301
 40
0.1089108807813502
 40
0.1588614544873187
 40
0.2071930616845702
 40
0.2071930616845702
 40
0.2071930616845702
 40
0.2071930616845702
 10
3.361286926143279
 20
54.1584671728146
 30
0.0
 10
3.379605110449779
 20
54.1542429326356
 30
0.0
 10
3.415140663720426
 20
54.14604831923914
 30
0.0
 10
3.468560028351577
 20
54.14873240995463
 30
0.0
 10
3.517902367478509
 20
54.16251118105853
 30
0.0
 10
3.544569234476635
 20
54.18194115061312
 30
0.0
 10
3.557683027355679
 20
54.19149611014439
 30
0.0
 11
3.361286926143279
 21
54.1584671728146
 31
0.0
 11
3.416530390828501
 21
54.1484609798462
 31
0.0
 11
3.469247282819275
 21
54.15079478436331
 31
0.0
 11
3.517026549008178
 21
54.16536193302149
 31
0.0
 11
3.557683027355679
 21
54.19149611014439
 31
0.0
  0
SPLINE
  5
12C
330
47
100
AcDbEntity
  8
0
  6
Continuous
 62
     7
100
AcDbSpline
210
0.0
220
0.0
230
1.0
 70
     8
 71
     3
 72
    11
 73
     7
 74
     5
 42
0.000000001
 43
0.0000000001
 44
0.00000001
 40
0.0
 40
0.0
 40
0.0
 40
0.0
 40
0.1309988334403186
 40
0.2541253920138757
 40
0.3706767344519019
 40
0.4834504872167185
 40
0.4834504872167185
 40
0.4834504872167185
 40
0.4834504872167185
 10
3.361286926143279
 20
54.1584671728146
 30
0.0
 10
3.318544495937051
 20
54.16832373326863
 30
0.0
 10
3.235628206912632
 20
54.18744451731237
 30
0.0
 10
3.110983020330819
 20
54.18118162987886
 30
0.0
 10
2.99585088842433
 20
54.14903117205613
 30
0.0
 10
2.933628207414518
 20
54.10369455847288
 30
0.0
 10
2.903029356647679
 20
54.08139965237841
 30
0.0
 11
3.361286926143279
 21
54.1584671728146
 31
0.0
 11
3.232385508544386
 21
54.18181495640754
 31
0.0
 11
3.109379427232625
 21
54.17636941253426
 31
0.0
 11
2.997894472791818
 21
54.14237939899851
 31
0.0
 11
2.903029356647679
 21
54.08139965237841
 31
0.0
  0
SPLINE
  5
12D
330
47
100
AcDbEntity
  8
0
  6
Continuous
 62
     7
100
AcDbSpline
210
0.0
220
0.0
230
1.0
 70
     8
 71
     3
 72
    11
 73
     7
 74
     5
 42
0.000000001
 43
0.0000000001
 44
0.00000001
 40
0.0
 40
0.0
 40
0.0
 40
0.0
 40
0.0994033217203209
 40
0.2014330550267086
 40
0.3081733529234958
 40
0.4208342685142671
 40
0.4208342685142671
 40
0.4208342685142671
 40
0.4208342685142671
 10
2.903029356647679
 20
54.08139965237841
 30
0.0
 10
2.879515785462103
 20
54.05779088979593
 30
0.0
 10
2.831867384091481
 20
54.00994956962464
 30
0.0
 10
2.785037458968603
 20
53.91693719975935
 30
0.0
 10
2.756642526878314
 20
53.81265949263023
 30
0.0
 10
2.755958711630403
 20
53.73924630908618
 30
0.0
 10
2.755607585009173
 20
53.70154917669856
 30
0.0
 11
2.903029356647679
 21
54.08139965237841
 31
0.0
 11
2.836637963659122
 21
54.0074185490973
 31
0.0
 11
2.788925627417527
 21
53.91723207583149
 31
0.0
 11
2.761591133135669
 21
53.81405108406295
 31
0.0
 11
2.755607585009173
 21
53.70154917669856
 31
0.0
  0
SPLINE
  5
12E
330
47
100
AcDbEntity
  8
0
  6
Continuous
 62
     7
100
AcDbSpline
210
0.0
220
0.0
230
1.0
 70
     8
 71
     3
 72
    11
 73
     7
 74
     5
 42
0.000000001
 43
0.0000000001
 44
0.00000001
 40
0.0
 40
0.0
 40
0.0
 40
0.0
 40
0.608542371195989
 40
1.247260111612537
 40
1.908517438562446
 40
2.581951841252506
 40
2.581951841252506
 40
2.581951841252506
 40
2.581951841252506
 10
2.755607585009173
 20
53.70154917669856
 30
0.0
 10
2.77588541065383
 20
53.49910314134178
 30
0.0
 10
2.817446579341234
 20
53.08417252145365
 30
0.0
 10
3.02598406490097
 20
52.47841161130029
 30
0.0
 10
3.324629008450417
 20
51.88878205995886
 30
0.0
 10
3.599904580074075
 20
51.53797720868361
 30
0.0
 10
3.738798111959284
 20
51.36097450130403
 30
0.0
 11
2.755607585009173
 21
53.70154917669856
 31
0.0
 11
2.83898981730312
 21
53.09874637127735
 31
0.0
 11
3.036723003659183
 21
52.49140631714396
 31
0.0
 11
3.340776044657079
 21
51.90419851507522
 31
0.0
 11
3.738798111959284
 21
51.36097450130403
 31
0.0
  0
SPLINE
  5
12F
330
47
100
AcDbEntity
  8
0
  6
Continuous
 62
     7
100
AcDbSpline
210
0.0
220
0.0
230
1.0
 70
     8
 71
     3
 72
    11
 73
     7
 74
     5
 42
0.000000001
 43
0.0000000001
 44
0.00000001
 40
0.0
 40
0.0
 40
0.0
 40
0.0
 40
0.1676014956986548
 40
0.3276192723756765
 40
0.4818199683816303
 40
0.6328501322469968
 40
0.6328501322469968
 40
0.6328501322469968
 40
0.6328501322469968
 10
5.149974577043381
 20
52.4019575952394
 30
0.0
 10
5.093998606214766
 20
52.40484749950647
 30
0.0
 10
4.984579494254777
 20
52.41049652946673
 30
0.0
 10
4.825553710865635
 20
52.38065942343678
 30
0.0
 10
4.679192421813612
 20
52.32449015547903
 30
0.0
 10
4.597752953431232
 20
52.26274938247152
 30
0.0
 10
4.557456192438778
 20
52.23219965060343
 30
0.0
 11
5.149974577043381
 21
52.4019575952394
 31
0.0
 11
4.982383644898843
 21
52.40383935057346
 31
0.0
 11
4.824894015050027
 21
52.37550728476644
 31
0.0
 11
4.681916704239822
 21
52.31775484821433
 31
0.0
 11
4.557456192438778
 21
52.23219965060343
 31
0.0
  0
SPLINE
  5
130
330
47
100
AcDbEntity
  8
0
  6
Continuous
 62
     7
100
AcDbSpline
210
0.0
220
0.0
230
1.0
 70
     8
 71
     3
 72
     9
 73
     5
 74
     3
 42
0.000000001
 43
0.0000000001
 44
0.00000001
 40
0.0
 40
0.0
 40
0.0
 40
0.0
 40
3.017382863901027
 40
5.879923767077692
 40
5.879923767077692
 40
5.879923767077692
 40
5.879923767077692
 10
10.75352787571597
 20
50.70469971743292
 30
0.0
 10
9.834609497152593
 20
51.12692693940185
 30
0.0
 10
8.043928540324625
 20
51.94971408075953
 30
0.0
 10
6.097540500149409
 20
52.25387973024138
 30
0.0
 10
5.149974577043381
 20
52.4019575952394
 30
0.0
 11
10.75352787571597
 21
50.70469971743292
 31
0.0
 11
7.955768774612729
 21
51.83480739598177
 31
0.0
 11
5.149974577043381
 21
52.4019575952394
 31
0.0
  0
SPLINE
  5
131
330
47
100
AcDbEntity
  8
0
  6
Continuous
 62
     7
100
AcDbSpline
210
0.0
220
0.0
230
1.0
 70
     8
 71
     3
 72
    11
 73
     7
 74
     5
 42
0.000000001
 43
0.0000000001
 44
0.00000001
 40
0.0
 40
0.0
 40
0.0
 40
0.0
 40
0.1005433573344974
 40
0.2034679318349804
 40
0.3107126266951444
 40
0.4234886162134837
 40
0.4234886162134837
 40
0.4234886162134837
 40
0.4234886162134837
 10
-13.24210596429722
 20
57.1249978324889
 30
0.0
 10
-13.26597699656799
 20
57.1012338426743
 30
0.0
 10
-13.31428439927523
 20
57.05314303909629
 30
0.0
 10
-13.36341589239321
 20
56.96052316736493
 30
0.0
 10
-13.39513686605847
 20
56.8567446086648
 30
0.0
 10
-13.39877167683002
 20
56.783231654479
 30
0.0
 10
-13.40063476410452
 20
56.74555112297506
 30
0.0
 11
-13.24210596429722
 21
57.1249978324889
 31
0.0
 11
-13.30977941609152
 21
57.05063876483106
 31
0.0
 11
-13.35971349474127
 21
56.96063845198436
 31
0.0
 11
-13.39032256832815
 21
56.85785465161503
 31
0.0
 11
-13.40063476410452
 21
56.74555112297506
 31
0.0
  0
SPLINE
  5
132
330
47
100
AcDbEntity
  8
0
  6
Continuous
 62
     7
100
AcDbSpline
210
0.0
220
0.0
230
1.0
 70
     8
 71
     3
 72
    15
 73
    11
 74
     9
 42
0.000000001
 43
0.0000000001
 44
0.00000001
 40
0.0
 40
0.0
 40
0.0
 40
0.0
 40
0.2048369516961727
 40
0.4238581840630846
 40
0.6501194531942326
 40
0.8747924090731083
 40
1.089449008600598
 40
1.288358348894611
 40
1.470749607670219
 40
1.642309149625421
 40
1.642309149625421
 40
1.642309149625421
 40
1.642309149625421
 10
-12.10159665842792
 20
56.37055112297505
 30
0.0
 10
-12.10785471151324
 20
56.43895579287434
 30
0.0
 10
-12.12080418190129
 20
56.58050192739569
 30
0.0
 10
-12.21230703322244
 20
56.78093189456798
 30
0.0
 10
-12.34593362493814
 20
56.96144642977842
 30
0.0
 10
-12.51654595307492
 20
57.10644786811997
 30
0.0
 10
-12.7084877758606
 20
57.20393182162087
 30
0.0
 10
-12.90503501395623
 20
57.24309321319849
 30
0.0
 10
-13.09478878769214
 20
57.22395703049492
 30
0.0
 10
-13.19401239851958
 20
57.15730432656324
 30
0.0
 10
-13.24210596429722
 20
57.1249978324889
 30
0.0
 11
-12.10159665842792
 21
56.37055112297505
 31
0.0
 11
-12.13127927492468
 21
56.57322603167118
 31
0.0
 11
-12.21761263900642
 21
56.77451401008739
 31
0.0
 11
-12.35270751985829
 21
56.95601755004606
 31
0.0
 11
-12.52421542931567
 21
57.10114843701845
 31
0.0
 11
-12.71646174212772
 21
57.19664090546336
 31
0.0
 11
-12.91187529897928
 21
57.2337686401543
 31
0.0
 11
-13.09259562960629
 21
57.20913663481929
 31
0.0
 11
-13.24210596429722
 21
57.1249978324889
 31
0.0
  0
SPLINE
  5
133
330
47
100
AcDbEntity
  8
0
  6
Continuous
 62
     7
100
AcDbSpline
210
0.0
220
0.0
230
1.0
 70
     8
 71
     3
 72
    11
 73
     7
 74
     5
 42
0.000000001
 43
0.0000000001
 44
0.00000001
 40
0.0
 40
0.0
 40
0.0
 40
0.0
 40
0.1882257032866282
 40
0.382449169745763
 40
0.587185115940097
 40
0.8046506808534328
 40
0.8046506808534328
 40
0.8046506808534328
 40
0.8046506808534328
 10
4.557456192438778
 20
52.23219965060343
 30
0.0
 10
4.513241341763882
 20
52.18708633638983
 30
0.0
 10
4.423402756918909
 20
52.09542217435887
 30
0.0
 10
4.341013852043791
 20
51.91429995066107
 30
0.0
 10
4.297878019283614
 20
51.71135111194126
 30
0.0
 10
4.306795499639436
 20
51.57028160251048
 30
0.0
 10
4.31138868091638
 20
51.4976201842976
 30
0.0
 11
4.557456192438778
 21
52.23219965060343
 31
0.0
 11
4.433574326794642
 21
52.09048797337373
 31
0.0
 11
4.34913916672938
 21
51.91557811160733
 31
0.0
 11
4.307813223479917
 21
51.71505635469551
 31
0.0
 11
4.31138868091638
 21
51.4976201842976
 31
0.0
  0
SPLINE
  5
134
330
47
100
AcDbEntity
  8
0
  6
Continuous
 62
     7
100
AcDbSpline
210
0.0
220
0.0
230
1.0
 70
     8
 71
     3
 72
    19
 73
    15
 74
    13
 42
0.000000001
 43
0.0000000001
 44
0.00000001
 40
0.0
 40
0.0
 40
0.0
 40
0.0
 40
0.4549891397780765
 40
0.9874134444124827
 40
1.632325189808857
 40
2.38653484588996
 40
3.223952136578643
 40
4.105841156202193
 40
4.987730175825761
 40
5.825147466514493
 40
6.579357122595592
 40
7.224268867991935
 40
7.756693172626334
 40
8.211682312404394
 40
8.211682312404394
 40
8.211682312404394
 40
8.211682312404394
 10
24.14685690872929
 20
99.84547280966295
 30
0.0
 10
24.12094967965122
 20
99.99781705730976
 30
0.0
 10
24.06472601985396
 20
100.3284332012176
 30
0.0
 10
23.67489736252001
 20
100.7423115511096
 30
0.0
 10
23.1300341181324
 20
101.0851132075066
 30
0.0
 10
22.42505610719142
 20
101.3454019425597
 30
0.0
 10
21.61474101499508
 20
101.5086759074793
 30
0.0
 10
20.74685690872928
 20
101.5643471718457
 30
0.0
 10
19.87897280246346
 20
101.5086759074793
 30
0.0
 10
19.0686577102671
 20
101.3454019425597
 30
0.0
 10
18.36367969932611
 20
101.0851132075066
 30
0.0
 10
17.81881645493853
 20
100.7423115511096
 30
0.0
 10
17.4289877976046
 20
100.3284332012176
 30
0.0
 10
17.37276413780735
 20
99.99781705730976
 30
0.0
 10
17.34685690872928
 20
99.84547280966297
 30
0.0
 11
24.14685690872929
 21
99.84547280966295
 31
0.0
 11
24.03100384253937
 21
100.2854650690328
 31
0.0
 11
23.69134328159637
 21
100.695472809663
 31
0.0
 11
23.15101932379977
 21
101.0475540171983
 31
0.0
 11
22.44685690872923
 21
101.3177159960966
 31
0.0
 11
21.62684142746882
 21
101.487546276568
 31
0.0
 11
20.74685690872928
 21
101.545472809663
 31
0.0
 11
19.86687238998973
 21
101.487546276568
 31
0.0
 11
19.04685690872927
 21
101.3177159960966
 31
0.0
 11
18.34269449365873
 21
101.0475540171983
 31
0.0
 11
17.80237053586217
 21
100.695472809663
 31
0.0
 11
17.46270997491919
 21
100.2854650690328
 31
0.0
 11
17.34685690872928
 21
99.84547280966297
 31
0.0
  0
SPLINE
  5
135
330
47
100
AcDbEntity
  8
0
  6
Continuous
 62
     7
100
AcDbSpline
210
0.0
220
0.0
230
1.0
 70
     8
 71
     3
 72
    17
 73
    13
 74
    11
 42
0.000000001
 43
0.0000000001
 44
0.00000001
 40
0.0
 40
0.0
 40
0.0
 40
0.0
 40
0.4549891351570278
 40
0.9874134433289716
 40
1.632325187680219
 40
2.386534842143832
 40
3.223952130391928
 40
4.105841146784378
 40
4.987730162953735
 40
5.825147450292699
 40
6.579357105363538
 40
7.22426885538845
 40
7.22426885538845
 40
7.22426885538845
 40
7.22426885538845
 10
17.34685690872928
 20
99.84547280966297
 30
0.0
 10
17.37276415735742
 20
99.69312852872734
 30
0.0
 10
17.42898785278781
 20
99.36251230721398
 30
0.0
 10
17.81881612669939
 20
98.94863465182601
 30
0.0
 10
18.36368132628376
 20
98.6058295496393
 30
0.0
 10
19.06865017855002
 20
98.34555691852964
 30
0.0
 10
19.87900488857677
 20
98.18221329221555
 30
0.0
 10
20.74673053940874
 20
98.12682062340575
 30
0.0
 10
21.61520161016628
 20
98.18145986348505
 30
0.0
 10
22.42350131593262
 20
98.34827733114945
 30
0.0
 10
23.13489344222351
 20
98.59728859315607
 30
0.0
 10
23.51577810811702
 20
98.8698419282582
 30
0.0
 10
23.69134328159637
 20
98.99547280966294
 30
0.0
 11
17.34685690872928
 21
99.84547280966297
 31
0.0
 11
17.46270997491919
 21
99.40548055029319
 31
0.0
 11
17.80237053586217
 21
98.99547280966297
 31
0.0
 11
18.34269449365873
 21
98.6433916021277
 31
0.0
 11
19.04685690872923
 21
98.3732296232294
 31
0.0
 11
19.86687238998969
 21
98.20339934275792
 31
0.0
 11
20.74685690872928
 21
98.14547280966296
 31
0.0
 11
21.62684142746882
 21
98.20339934275792
 31
0.0
 11
22.44685690872923
 21
98.3732296232294
 31
0.0
 11
23.15101932379978
 21
98.64339160212768
 31
0.0
 11
23.69134328159637
 21
98.99547280966294
 31
0.0
  0
SPLINE
  5
136
330
47
100
AcDbEntity
  8
0
  6
Continuous
 62
     7
100
AcDbSpline
210
0.0
220
0.0
230
1.0
 70
     8
 71
     3
 72
    15
 73
    11
 74
     9
 42
0.000000001
 43
0.0000000001
 44
0.00000001
 40
0.0
 40
0.0
 40
0.0
 40
0.0
 40
0.58526093303013
 40
1.2349433019947
 40
1.931107199712042
 40
2.651522631941307
 40
3.371938064170559
 40
4.068101961887849
 40
4.717784330852382
 40
5.303045263882528
 40
5.303045263882528
 40
5.303045263882528
 40
5.303045263882528
 10
23.30744461444297
 20
98.72705980440193
 30
0.0
 10
23.13259892078373
 20
98.8144564774736
 30
0.0
 10
22.76366173452931
 20
98.99886982674512
 30
0.0
 10
22.14001090414921
 20
99.17151876215024
 30
0.0
 10
21.45975820471198
 20
99.28425822400163
 30
0.0
 10
20.74685690872924
 20
99.32104986538572
 30
0.0
 10
20.03395561274649
 20
99.2842582240016
 30
0.0
 10
19.35370291330931
 20
99.17151876215024
 30
0.0
 10
18.73005208292924
 20
98.99886982674509
 30
0.0
 10
18.36111489667481
 20
98.8144564774736
 30
0.0
 10
18.18626920301557
 20
98.72705980440193
 30
0.0
 11
23.30744461444297
 21
98.72705980440193
 31
0.0
 11
22.77619484991576
 21
98.97262862850441
 31
0.0
 11
22.15305596366869
 21
99.15643588505407
 31
0.0
 11
21.46624347201891
 21
99.2701582477497
 31
0.0
 11
20.74685690872923
 21
99.30864679914092
 31
0.0
 11
20.02747034543956
 21
99.27015824774969
 31
0.0
 11
19.34065785378983
 21
99.15643588505407
 31
0.0
 11
18.7175189675428
 21
98.97262862850441
 31
0.0
 11
18.18626920301557
 21
98.72705980440193
 31
0.0
  0
ENDBLK
  5
49
330
47
100
AcDbEntity
  8
0
100
AcDbBlockEnd
  0
BLOCK
  5
4C
330
4A
100
AcDbEntity
  8
0
100
AcDbBlockBegin
  2
AllgSicht1
 70
     0
 10
12.00000000007049
 20
75.99999999993588
 30
0.0
  3
AllgSicht1
  1

  0
INSERT
  5
4B
330
4A
100
AcDbEntity
  8
0
100
AcDbBlockReference
  2
UKN_35_BU-select__1
 10
-13.40063476410452
 20
43.12443045499898
 30
0.0
  0
MTEXT
  5
138
330
4A
100
AcDbEntity
  8
1
 62
     6
100
AcDbMText
 10
12.00000000007026
 20
35.13193187188062
 30
0.0
 40
5.0
 41
0.0
 71
     2
 72
     1
  1
 
  7
CONVERTER_11
 73
     1
 44
1.32052821128451
  0
ENDBLK
  5
4D
330
4A
100
AcDbEntity
  8
0
100
AcDbBlockEnd
  0
BLOCK
  5
4F
330
4E
100
AcDbEntity
  8
0
100
AcDbBlockBegin
  2
UKN_35_BU-select__2
 70
     0
 10
-142.9999996183655
 20
54.49999999999996
 30
0.0
  3
UKN_35_BU-select__2
  1

  0
LINE
  5
139
330
4E
100
AcDbEntity
  8
0
  6
Continuous
 62
     7
100
AcDbLine
 10
-105.1385922058892
 20
63.98358995317102
 30
0.0
 11
-109.8835895715365
 21
59.2385925875237
 31
0.0
  0
LINE
  5
13A
330
4E
100
AcDbEntity
  8
0
  6
Continuous
 62
     7
100
AcDbLine
 10
-134.1499996183653
 20
58.33499999999995
 30
0.0
 11
-138.1231811932667
 21
58.33499999999995
 31
0.0
  0
LINE
  5
13B
330
4E
100
AcDbEntity
  8
0
  6
Continuous
 62
     7
100
AcDbLine
 10
-110.6614070308417
 20
60.0164100468289
 30
0.0
 11
-105.9164096651944
 21
64.76140741247622
 31
0.0
  0
LINE
  5
13C
330
4E
100
AcDbEntity
  8
0
  6
Continuous
 62
     7
100
AcDbLine
 10
-122.8809356972631
 20
65.39987172847717
 30
0.0
 11
-128.5648713468425
 21
59.71593607889776
 31
0.0
  0
LINE
  5
13D
330
4E
100
AcDbEntity
  8
0
  6
Continuous
 62
     7
100
AcDbLine
 10
-127.4190635394675
 20
58.57012827152275
 30
0.0
 11
-121.7351278898881
 21
64.25406392110217
 31
0.0
  0
LINE
  5
13E
330
4E
100
AcDbEntity
  8
0
  6
Continuous
 62
     7
100
AcDbLine
 10
-120.3749996183654
 20
62.27499999999994
 30
0.0
 11
-120.3749996183654
 21
61.72499999999995
 31
0.0
  0
LINE
  5
13F
330
4E
100
AcDbEntity
  8
0
  6
Continuous
 62
     7
100
AcDbLine
 10
-120.3749996183654
 20
67.99999999999994
 30
0.0
 11
-120.3749996183654
 21
62.27499999999994
 31
0.0
  0
LINE
  5
140
330
4E
100
AcDbEntity
  8
0
  6
Continuous
 62
     7
100
AcDbLine
 10
-120.3749996183654
 20
61.72499999999995
 30
0.0
 11
-120.3749996183654
 21
54.49999999999996
 31
0.0
  0
LINE
  5
141
330
4E
100
AcDbEntity
  8
0
  6
Continuous
 62
     7
100
AcDbLine
 10
-135.9999996183655
 20
57.72499999999995
 30
0.0
 11
-124.3749996183654
 21
57.72499999999995
 31
0.0
  0
LINE
  5
142
330
4E
100
AcDbEntity
  8
0
  6
Continuous
 62
     7
100
AcDbLine
 10
-135.9999996183655
 20
66.27499999999995
 30
0.0
 11
-124.3749996183654
 21
66.27499999999993
 31
0.0
  0
LINE
  5
143
330
4E
100
AcDbEntity
  8
0
  6
Continuous
 62
     7
100
AcDbLine
 10
-142.9999996183655
 20
69.49999999999996
 30
0.0
 11
-134.8999996183654
 21
69.49999999999996
 31
0.0
  0
LINE
  5
144
330
4E
100
AcDbEntity
  8
0
  6
Continuous
 62
     7
100
AcDbLine
 10
-134.8999996183654
 20
67.99999999999994
 30
0.0
 11
-142.9999996183655
 21
67.99999999999994
 31
0.0
  0
LINE
  5
145
330
4E
100
AcDbEntity
  8
0
  6
Continuous
 62
     7
100
AcDbLine
 10
-142.9999996183655
 20
67.99999999999994
 30
0.0
 11
-142.9999996183655
 21
69.49999999999996
 31
0.0
  0
LINE
  5
146
330
4E
100
AcDbEntity
  8
0
  6
Continuous
 62
     7
100
AcDbLine
 10
-134.8999996183654
 20
69.49999999999996
 30
0.0
 11
-100.8999996183654
 21
69.49999999999996
 31
0.0
  0
LINE
  5
147
330
4E
100
AcDbEntity
  8
0
  6
Continuous
 62
     7
100
AcDbLine
 10
-92.99999961836544
 20
54.49999999999996
 30
0.0
 11
-92.99999961836544
 21
69.49999999999996
 31
0.0
  0
LINE
  5
148
330
4E
100
AcDbEntity
  8
0
  6
Continuous
 62
     7
100
AcDbLine
 10
-100.8999996183654
 20
69.49999999999996
 30
0.0
 11
-99.14598107904146
 21
69.49999999999996
 31
0.0
  0
LINE
  5
149
330
4E
100
AcDbEntity
  8
0
  6
Continuous
 62
     7
100
AcDbLine
 10
-100.8999996183654
 20
54.49999999999996
 30
0.0
 11
-100.8999996183654
 21
69.49999999999996
 31
0.0
  0
LINE
  5
14A
330
4E
100
AcDbEntity
  8
0
  6
Continuous
 62
     7
100
AcDbLine
 10
-98.53453454856904
 20
69.49999999999996
 30
0.0
 11
-98.53453454856904
 21
54.49999999999996
 31
0.0
  0
LINE
  5
14B
330
4E
100
AcDbEntity
  8
0
  6
Continuous
 62
     7
100
AcDbLine
 10
-99.14598107904146
 20
69.49999999999996
 30
0.0
 11
-99.14598107904146
 21
54.49999999999996
 31
0.0
  0
LINE
  5
14C
330
4E
100
AcDbEntity
  8
0
  6
Continuous
 62
     7
100
AcDbLine
 10
-97.87183660006265
 20
69.49999999999996
 30
0.0
 11
-97.87183660006265
 21
54.49999999999996
 31
0.0
  0
LINE
  5
14D
330
4E
100
AcDbEntity
  8
0
  6
Continuous
 62
     7
100
AcDbLine
 10
-95.58632670406544
 20
54.49999999999996
 30
0.0
 11
-95.58632670406544
 21
69.49999999999996
 31
0.0
  0
LINE
  5
14E
330
4E
100
AcDbEntity
  8
0
  6
Continuous
 62
     7
100
AcDbLine
 10
-134.8999996183654
 20
67.99999999999994
 30
0.0
 11
-120.3749996183654
 21
67.99999999999994
 31
0.0
  0
LINE
  5
14F
330
4E
100
AcDbEntity
  8
0
  6
Continuous
 62
     7
100
AcDbLine
 10
-138.1703452129655
 20
65.63499999999996
 30
0.0
 11
-134.1499996183653
 21
65.63499999999996
 31
0.0
  0
LINE
  5
150
330
4E
100
AcDbEntity
  8
0
  6
Continuous
 62
     7
100
AcDbLine
 10
-92.99999961836544
 20
69.49999999999996
 30
0.0
 11
-95.58632670406544
 21
69.49999999999996
 31
0.0
  0
LINE
  5
151
330
4E
100
AcDbEntity
  8
0
  6
Continuous
 62
     7
100
AcDbLine
 10
-98.53453454856904
 20
69.49999999999996
 30
0.0
 11
-99.14598107904146
 21
69.49999999999996
 31
0.0
  0
LINE
  5
152
330
4E
100
AcDbEntity
  8
0
  6
Continuous
 62
     7
100
AcDbLine
 10
-97.87183660006265
 20
69.49999999999996
 30
0.0
 11
-95.58632670406544
 21
69.49999999999996
 31
0.0
  0
LINE
  5
153
330
4E
100
AcDbEntity
  8
0
  6
Continuous
 62
     7
100
AcDbLine
 10
-98.53453454856904
 20
69.49999999999996
 30
0.0
 11
-97.87183660006265
 21
69.49999999999996
 31
0.0
  0
LINE
  5
154
330
4E
100
AcDbEntity
  8
0
  6
Continuous
 62
     7
100
AcDbLine
 10
-95.58632670406544
 20
54.49999999999996
 30
0.0
 11
-92.99999961836544
 21
54.49999999999996
 31
0.0
  0
LINE
  5
155
330
4E
100
AcDbEntity
  8
0
  6
Continuous
 62
     7
100
AcDbLine
 10
-95.58632670406544
 20
54.49999999999996
 30
0.0
 11
-97.87183660006265
 21
54.49999999999996
 31
0.0
  0
LINE
  5
156
330
4E
100
AcDbEntity
  8
0
  6
Continuous
 62
     7
100
AcDbLine
 10
-99.14598107904146
 20
54.49999999999996
 30
0.0
 11
-98.53453454856904
 21
54.49999999999996
 31
0.0
  0
LINE
  5
157
330
4E
100
AcDbEntity
  8
0
  6
Continuous
 62
     7
100
AcDbLine
 10
-99.14598107904146
 20
54.49999999999996
 30
0.0
 11
-100.8999996183654
 21
54.49999999999996
 31
0.0
  0
LINE
  5
158
330
4E
100
AcDbEntity
  8
0
  6
Continuous
 62
     7
100
AcDbLine
 10
-97.87183660006265
 20
54.49999999999996
 30
0.0
 11
-98.53453454856904
 21
54.49999999999996
 31
0.0
  0
LINE
  5
159
330
4E
100
AcDbEntity
  8
0
  6
Continuous
 62
     7
100
AcDbLine
 10
-120.3749996183654
 20
54.49999999999996
 30
0.0
 11
-142.9999996183655
 21
54.49999999999996
 31
0.0
  0
LINE
  5
15A
330
4E
100
AcDbEntity
  8
0
  6
Continuous
 62
     7
100
AcDbLine
 10
-120.3749996183654
 20
54.49999999999996
 30
0.0
 11
-100.8999996183654
 21
54.49999999999996
 31
0.0
  0
LINE
  5
15B
330
4E
100
AcDbEntity
  8
0
  6
Continuous
 62
     7
100
AcDbLine
 10
-134.8999996183654
 20
67.99999999999994
 30
0.0
 11
-134.8999996183654
 21
69.49999999999996
 31
0.0
  0
LINE
  5
15C
330
4E
100
AcDbEntity
  8
0
  6
Continuous
 62
     7
100
AcDbLine
 10
-134.1499996183653
 20
66.27499999999995
 30
0.0
 11
-134.1499996183653
 21
57.72499999999995
 31
0.0
  0
LINE
  5
15D
330
4E
100
AcDbEntity
  8
0
  6
Continuous
 62
     7
100
AcDbLine
 10
-142.9999996183655
 20
67.99999999999994
 30
0.0
 11
-142.9999996183655
 21
54.49999999999996
 31
0.0
  0
LINE
  5
15E
330
4E
100
AcDbEntity
  8
0
  6
Continuous
 62
     7
100
AcDbLine
 10
-139.9999996183655
 20
61.72499999999995
 30
0.0
 11
-139.9999996183655
 21
62.27499999999995
 31
0.0
  0
LINE
  5
15F
330
4E
100
AcDbEntity
  8
1
  6
DOT_CENTER
 62
     2
100
AcDbLine
 10
-131.5999996183654
 20
61.72499999999995
 30
0.0
 11
-140.3999996183655
 21
61.72499999999995
 31
0.0
  0
LINE
  5
160
330
4E
100
AcDbEntity
  8
1
  6
DOT_CENTER
 62
     2
100
AcDbLine
 10
-135.9999996183655
 20
66.12499999999996
 30
0.0
 11
-135.9999996183655
 21
57.32499999999995
 31
0.0
  0
LINE
  5
161
330
4E
100
AcDbEntity
  8
1
  6
DOT_CENTER
 62
     2
100
AcDbLine
 10
-119.9749996183654
 20
61.72499999999995
 30
0.0
 11
-132.088954286797
 21
61.72499999999995
 31
0.0
  0
LINE
  5
162
330
4E
100
AcDbEntity
  8
1
  6
DOT_CENTER
 62
     2
100
AcDbLine
 10
-124.3749996183654
 20
66.12499999999996
 30
0.0
 11
-124.3749996183654
 21
57.32499999999995
 31
0.0
  0
LINE
  5
163
330
4E
100
AcDbEntity
  8
1
  6
DOT_CENTER
 62
     2
100
AcDbLine
 10
-120.6399996183652
 20
61.98499999999996
 30
0.0
 11
-129.6599996183654
 21
61.98499999999996
 31
0.0
  0
LINE
  5
164
330
4E
100
AcDbEntity
  8
1
  6
DOT_CENTER
 62
     2
100
AcDbLine
 10
-125.1499996183653
 20
66.49500000000005
 30
0.0
 11
-125.1499996183653
 21
57.47499999999987
 31
0.0
  0
LINE
  5
165
330
4E
100
AcDbEntity
  8
1
  6
DOT_CENTER
 62
     2
100
AcDbLine
 10
-104.1599996183655
 20
61.99999999999996
 30
0.0
 11
-111.6399996183654
 21
61.99999999999996
 31
0.0
  0
LINE
  5
166
330
4E
100
AcDbEntity
  8
1
  6
DOT_CENTER
 62
     2
100
AcDbLine
 10
-107.8999996183654
 20
65.73999999999995
 30
0.0
 11
-107.8999996183654
 21
58.25999999999997
 31
0.0
  0
ARC
  5
167
330
4E
100
AcDbEntity
  8
0
  6
Continuous
 62
     7
100
AcDbCircle
 10
-107.8999996183654
 20
61.99999999999996
 30
0.0
 40
3.399999999999955
100
AcDbArc
 50
35.69065907836354
 51
54.3093409216378
  0
ARC
  5
168
330
4E
100
AcDbEntity
  8
0
  6
Continuous
 62
     7
100
AcDbCircle
 10
-107.8999996183654
 20
61.99999999999996
 30
0.0
 40
3.400000000000032
100
AcDbArc
 50
215.6906590783624
 51
234.3093409216364
  0
ARC
  5
169
330
4E
100
AcDbEntity
  8
0
  6
Continuous
 62
     7
100
AcDbCircle
 10
-107.8999996183654
 20
61.99999999999996
 30
0.0
 40
3.400000000000026
100
AcDbArc
 50
234.3093409216364
 51
359.9999999999998
  0
ARC
  5
16A
330
4E
100
AcDbEntity
  8
0
  6
Continuous
 62
     7
100
AcDbCircle
 10
-125.1499996183653
 20
61.98499999999996
 30
0.0
 40
4.100000000000072
100
AcDbArc
 50
33.60266048236808
 51
56.3973395176322
  0
ARC
  5
16B
330
4E
100
AcDbEntity
  8
0
  6
Continuous
 62
     7
100
AcDbCircle
 10
-124.3749996183654
 20
62.27499999999994
 30
0.0
 40
4.0
100
AcDbArc
 50
0.0
 51
90.0
  0
ARC
  5
16C
330
4E
100
AcDbEntity
  8
0
  6
Continuous
 62
     7
100
AcDbCircle
 10
-124.3749996183654
 20
61.72499999999995
 30
0.0
 40
4.0
100
AcDbArc
 50
270.0
 51
0.0
  0
ARC
  5
16D
330
4E
100
AcDbEntity
  8
0
  6
Continuous
 62
     7
100
AcDbCircle
 10
-125.1499996183653
 20
61.98499999999996
 30
0.0
 40
4.100000000000076
100
AcDbArc
 50
236.3973395176322
 51
33.60266048236808
  0
ARC
  5
16E
330
4E
100
AcDbEntity
  8
0
  6
Continuous
 62
     7
100
AcDbCircle
 10
-125.1499996183653
 20
61.98499999999996
 30
0.0
 40
4.10000000000006
100
AcDbArc
 50
213.6026604823678
 51
236.3973395176322
  0
ARC
  5
16F
330
4E
100
AcDbEntity
  8
0
  6
Continuous
 62
     7
100
AcDbCircle
 10
-125.1499996183653
 20
61.98499999999996
 30
0.0
 40
4.100000000000076
100
AcDbArc
 50
56.3973395176322
 51
213.6026604823678
  0
ARC
  5
170
330
4E
100
AcDbEntity
  8
0
  6
Continuous
 62
     7
100
AcDbCircle
 10
-107.8999996183654
 20
61.99999999999996
 30
0.0
 40
3.400000000000006
100
AcDbArc
 50
359.9999999999998
 51
35.69065907836354
  0
ARC
  5
171
330
4E
100
AcDbEntity
  8
0
  6
Continuous
 62
     7
100
AcDbCircle
 10
-135.9999996183655
 20
62.27499999999995
 30
0.0
 40
4.0
100
AcDbArc
 50
90.0
 51
180.0
  0
ARC
  5
172
330
4E
100
AcDbEntity
  8
0
  6
Continuous
 62
     7
100
AcDbCircle
 10
-135.9999996183655
 20
61.72499999999995
 30
0.0
 40
4.0
100
AcDbArc
 50
180.0
 51
270.0
  0
ARC
  5
173
330
4E
100
AcDbEntity
  8
0
  6
Continuous
 62
     7
100
AcDbCircle
 10
-107.8999996183654
 20
61.99999999999996
 30
0.0
 40
3.399999999999968
100
AcDbArc
 50
54.3093409216378
 51
215.6906590783624
  0
ENDBLK
  5
50
330
4E
100
AcDbEntity
  8
0
100
AcDbBlockEnd
  0
BLOCK
  5
53
330
51
100
AcDbEntity
  8
0
100
AcDbBlockBegin
  2
Drfsicht1
 70
     0
 10
-117.99999999992
 20
62.0
 30
0.0
  3
Drfsicht1
  1

  0
INSERT
  5
52
330
51
100
AcDbEntity
  8
0
100
AcDbBlockReference
  2
UKN_35_BU-select__2
 10
-142.9999996183655
 20
54.49999999999996
 30
0.0
  0
MTEXT
  5
174
330
51
100
AcDbEntity
  8
1
 62
     6
100
AcDbMText
 10
-117.99999999992
 20
49.5
 30
0.0
 40
5.0
 41
0.0
 71
     2
 72
     1
  1
 
  7
CONVERTER_11
 73
     1
 44
1.32052821128451
  0
DIMENSION
  5
17F
330
51
100
AcDbEntity
  8
1
100
AcDbDimension
  2
*D17
 10
-152.9999996183655
 20
54.49999999999996
 30
0.0
 11
-156.2499996183655
 21
61.4567124672371
 31
0.0
 70
    33
  1
<>
 71
     5
 42
-1.0
 53
90.0
  3
ME10_DIM_10
100
AcDbAlignedDimension
 13
-142.9999996183655
 23
69.49999999999996
 33
0.0
 14
-142.9999996183655
 24
54.49999999999996
 34
0.0
  0
ENDBLK
  5
54
330
51
100
AcDbEntity
  8
0
100
AcDbBlockEnd
  0
BLOCK
  5
56
330
55
100
AcDbEntity
  8
0
100
AcDbBlockBegin
  2
UKN_35_BU-select__3
 70
     0
 10
-28.00000038163947
 20
115.4999984740213
 30
0.0
  3
UKN_35_BU-select__3
  1

  0
LINE
  5
180
330
55
100
AcDbEntity
  8
0
  6
Continuous
 62
     7
100
AcDbLine
 10
15.66999961836054
 20
127.4999984740213
 30
0.0
 11
15.66999961836054
 21
125.492338918263
 31
0.0
  0
LINE
  5
181
330
55
100
AcDbEntity
  8
0
  6
Continuous
 62
     7
100
AcDbLine
 10
13.06999961836056
 20
120.1999984740203
 30
0.0
 11
13.06999961836056
 21
120.3999984740213
 31
0.0
  0
LINE
  5
182
330
55
100
AcDbEntity
  8
0
  6
Continuous
 62
     7
100
AcDbLine
 10
13.06999961836056
 20
120.3999984740213
 30
0.0
 11
14.09499961836057
 21
120.5999984740213
 31
0.0
  0
LINE
  5
183
330
55
100
AcDbEntity
  8
0
  6
Continuous
 62
     7
100
AcDbLine
 10
14.09499961836057
 20
120.5999984740213
 30
0.0
 11
14.19499961836055
 21
121.7999984740212
 31
0.0
  0
LINE
  5
184
330
55
100
AcDbEntity
  8
0
  6
Continuous
 62
     7
100
AcDbLine
 10
15.66999961836054
 20
127.4999984740213
 30
0.0
 11
21.99999961836054
 21
127.4999984740213
 31
0.0
  0
LINE
  5
185
330
55
100
AcDbEntity
  8
0
  6
Continuous
 62
     7
100
AcDbLine
 10
21.99999961836054
 20
127.4999984740213
 30
0.0
 11
21.99999961836054
 21
131.3499984740213
 31
0.0
  0
LINE
  5
186
330
55
100
AcDbEntity
  8
0
  6
Continuous
 62
     7
100
AcDbLine
 10
21.99999961836054
 20
131.3499984740213
 30
0.0
 11
14.89999961836053
 21
143.6475592077603
 31
0.0
  0
LINE
  5
187
330
55
100
AcDbEntity
  8
0
  6
Continuous
 62
     7
100
AcDbLine
 10
16.66999961836054
 20
123.7602881106942
 30
0.0
 11
21.62499961836054
 21
120.8995175268596
 31
0.0
  0
LINE
  5
188
330
55
100
AcDbEntity
  8
0
  6
Continuous
 62
     7
100
AcDbLine
 10
-19.80500038163944
 20
120.3999984740213
 30
0.0
 11
-19.80500038163944
 21
119.9499984740213
 31
0.0
  0
LINE
  5
189
330
55
100
AcDbEntity
  8
0
  6
Continuous
 62
     7
100
AcDbLine
 10
-20.10000038163947
 20
176.3999984740213
 30
0.0
 11
-21.85401892096345
 21
173.3619492464944
 31
0.0
  0
LINE
  5
18A
330
55
100
AcDbEntity
  8
0
  6
Continuous
 62
     7
100
AcDbLine
 10
-19.80500038163944
 20
119.9499984740213
 30
0.0
 11
-20.75500038163944
 21
118.9999984740213
 31
0.0
  0
LINE
  5
18B
330
55
100
AcDbEntity
  8
0
  6
Continuous
 62
     7
100
AcDbLine
 10
-20.60000038163947
 20
120.5987484740213
 30
0.0
 11
-19.80500038163944
 21
120.3999984740213
 31
0.0
  0
LINE
  5
18C
330
55
100
AcDbEntity
  8
0
  6
Continuous
 62
     7
100
AcDbLine
 10
-28.00000038163947
 20
162.7167970942272
 30
0.0
 11
-28.00000038163947
 21
124.3999984740213
 31
0.0
  0
LINE
  5
18D
330
55
100
AcDbEntity
  8
0
  6
Continuous
 62
     7
100
AcDbLine
 10
-24.35000038163946
 20
124.3999984740213
 30
0.0
 11
-28.00000038163947
 21
124.3999984740213
 31
0.0
  0
LINE
  5
18E
330
55
100
AcDbEntity
  8
0
  6
Continuous
 62
     7
100
AcDbLine
 10
-22.46546545143587
 20
165.9528927896045
 30
0.0
 11
-23.39211263348522
 21
166.4878927896044
 31
0.0
  0
LINE
  5
18F
330
55
100
AcDbEntity
  8
0
  6
Continuous
 62
     7
100
AcDbLine
 10
-23.39211263348522
 20
166.4878927896044
 30
0.0
 11
-23.12816339994226
 21
166.9450662727197
 31
0.0
  0
LINE
  5
190
330
55
100
AcDbEntity
  8
0
  6
Continuous
 62
     7
100
AcDbLine
 10
-23.12816339994226
 20
166.9450662727197
 30
0.0
 11
-25.41367329593947
 21
167.1964470116511
 31
0.0
  0
LINE
  5
191
330
55
100
AcDbEntity
  8
0
  6
Continuous
 62
     7
100
AcDbLine
 10
-28.00000038163947
 20
162.7167970942272
 30
0.0
 11
-25.41367329593947
 21
167.1964470116511
 31
0.0
  0
LINE
  5
192
330
55
100
AcDbEntity
  8
0
  6
Continuous
 62
     7
100
AcDbLine
 10
-20.60000038163946
 20
121.7999984740213
 30
0.0
 11
-20.60000038163947
 21
120.5987484740213
 31
0.0
  0
LINE
  5
193
330
55
100
AcDbEntity
  8
0
  6
Continuous
 62
     7
100
AcDbLine
 10
-20.75500038163944
 20
118.9999984740213
 30
0.0
 11
-24.35000038163946
 21
118.9999984740213
 31
0.0
  0
LINE
  5
194
330
55
100
AcDbEntity
  8
0
  6
Continuous
 62
     7
100
AcDbLine
 10
-20.49356186702821
 20
171.5083299854258
 30
0.0
 11
-21.85401892096345
 21
173.3619492464944
 31
0.0
  0
LINE
  5
195
330
55
100
AcDbEntity
  8
0
  6
Continuous
 62
     7
100
AcDbLine
 10
-24.35000038163946
 20
118.9999984740213
 30
0.0
 11
-24.35000038163946
 21
124.3999984740213
 31
0.0
  0
LINE
  5
196
330
55
100
AcDbEntity
  8
0
  6
Continuous
 62
     7
100
AcDbLine
 10
13.89999961836053
 20
176.3999984740213
 30
0.0
 11
-20.10000038163947
 21
176.3999984740213
 31
0.0
  0
LINE
  5
197
330
55
100
AcDbEntity
  8
0
  6
Continuous
 62
     7
100
AcDbLine
 10
14.89999961836053
 20
143.6475592077603
 30
0.0
 11
14.89999961836053
 21
150.8499984740213
 31
0.0
  0
LINE
  5
198
330
55
100
AcDbEntity
  8
0
  6
Continuous
 62
     7
100
AcDbLine
 10
14.26999961836056
 20
125.2972787731557
 30
0.0
 11
9.85867475295537
 21
124.8999984740213
 31
0.0
  0
LINE
  5
199
330
55
100
AcDbEntity
  8
0
  6
Continuous
 62
     7
100
AcDbLine
 10
14.26999961836055
 20
124.1079342694336
 30
0.0
 11
14.26999961836056
 21
125.2972787731557
 31
0.0
  0
LINE
  5
19A
330
55
100
AcDbEntity
  8
0
  6
Continuous
 62
     7
100
AcDbLine
 10
9.56999961836052
 20
124.3999984740213
 30
0.0
 11
3.76999961836055
 21
124.3999984740213
 31
0.0
  0
LINE
  5
19B
330
55
100
AcDbEntity
  8
0
  6
Continuous
 62
     7
100
AcDbLine
 10
3.76999961836055
 20
124.3999984740213
 30
0.0
 11
3.4405803296258
 21
125.6294079965725
 31
0.0
  0
LINE
  5
19C
330
55
100
AcDbEntity
  8
0
  6
Continuous
 62
     7
100
AcDbLine
 10
2.95761741648127
 20
125.9999984740213
 30
0.0
 11
2.84499961836056
 21
125.9999984740213
 31
0.0
  0
LINE
  5
19D
330
55
100
AcDbEntity
  8
0
  6
Continuous
 62
     7
100
AcDbLine
 10
2.34499961836056
 20
125.4999984740213
 30
0.0
 11
2.34499961836056
 21
123.1499984740213
 31
0.0
  0
LINE
  5
19E
330
55
100
AcDbEntity
  8
0
  6
Continuous
 62
     7
100
AcDbLine
 10
9.85867475295537
 20
124.8999984740213
 30
0.0
 11
9.56999961836052
 21
124.3999984740213
 31
0.0
  0
LINE
  5
19F
330
55
100
AcDbEntity
  8
0
  6
Continuous
 62
     7
100
AcDbLine
 10
13.16999961836055
 20
122.6999984740212
 30
0.0
 11
14.26999961836055
 21
124.1079342694336
 31
0.0
  0
LINE
  5
1A0
330
55
100
AcDbEntity
  8
0
  6
Continuous
 62
     7
100
AcDbLine
 10
13.16999961836055
 20
122.0004103761275
 30
0.0
 11
13.16999961836055
 21
122.6999984740212
 31
0.0
  0
LINE
  5
1A1
330
55
100
AcDbEntity
  8
0
  6
Continuous
 62
     7
100
AcDbLine
 10
14.19499961836055
 20
121.7999984740212
 30
0.0
 11
13.16999961836055
 21
122.0004103761275
 31
0.0
  0
LINE
  5
1A2
330
55
100
AcDbEntity
  8
0
  6
Continuous
 62
     7
100
AcDbLine
 10
-13.08000038163945
 20
115.4999984740213
 30
0.0
 11
-16.03000038163945
 21
115.4999984740213
 31
0.0
  0
LINE
  5
1A3
330
55
100
AcDbEntity
  8
0
  6
Continuous
 62
     7
100
AcDbLine
 10
-13.08000038163945
 20
117.1499984740213
 30
0.0
 11
-13.08000038163945
 21
115.4999984740213
 31
0.0
  0
LINE
  5
1A4
330
55
100
AcDbEntity
  8
0
  6
Continuous
 62
     7
100
AcDbLine
 10
-16.03000038163945
 20
115.4999984740213
 30
0.0
 11
-16.03000038163946
 21
116.7749984740213
 31
0.0
  0
LINE
  5
1A5
330
55
100
AcDbEntity
  8
0
  6
Continuous
 62
     7
100
AcDbLine
 10
-12.44000038163945
 20
117.1499984740213
 30
0.0
 11
-13.08000038163945
 21
117.1499984740213
 31
0.0
  0
LINE
  5
1A6
330
55
100
AcDbEntity
  8
0
  6
Continuous
 62
     7
100
AcDbLine
 10
-15.73000038163944
 20
118.3999984740213
 30
0.0
 11
-15.73000038163944
 21
118.8999984740212
 31
0.0
  0
LINE
  5
1A7
330
55
100
AcDbEntity
  8
0
  6
Continuous
 62
     7
100
AcDbLine
 10
-14.50500038163944
 20
124.4256163910073
 30
0.0
 11
-14.50500038163944
 21
125.4999984740213
 31
0.0
  0
LINE
  5
1A8
330
55
100
AcDbEntity
  8
0
  6
Continuous
 62
     7
100
AcDbLine
 10
-15.00500038163944
 20
125.9999984740213
 30
0.0
 11
-15.50500038163944
 21
125.9999984740213
 31
0.0
  0
LINE
  5
1A9
330
55
100
AcDbEntity
  8
0
  6
Continuous
 62
     7
100
AcDbLine
 10
-16.00500038163944
 20
125.4999984740213
 30
0.0
 11
-16.00500038163944
 21
124.1681204384438
 31
0.0
  0
LINE
  5
1AA
330
55
100
AcDbEntity
  8
0
  6
Continuous
 62
     7
100
AcDbLine
 10
-16.00500038163944
 20
124.1681204384438
 30
0.0
 11
-16.53000038163947
 21
121.7999984740213
 31
0.0
  0
LINE
  5
1AB
330
55
100
AcDbEntity
  8
0
  6
Continuous
 62
     7
100
AcDbLine
 10
-15.73000038163944
 20
118.8999984740212
 30
0.0
 11
-14.50500038163944
 21
124.4256163910073
 31
0.0
  0
LINE
  5
1AC
330
55
100
AcDbEntity
  8
0
  6
Continuous
 62
     7
100
AcDbLine
 10
-14.88000038163944
 20
118.3999984740213
 30
0.0
 11
-15.73000038163944
 21
118.3999984740213
 31
0.0
  0
LINE
  5
1AD
330
55
100
AcDbEntity
  8
0
  6
Continuous
 62
     7
100
AcDbLine
 10
-14.88000038163945
 20
116.8999984740213
 30
0.0
 11
-14.88000038163944
 21
118.3999984740213
 31
0.0
  0
LINE
  5
1AE
330
55
100
AcDbEntity
  8
0
  6
Continuous
 62
     7
100
AcDbLine
 10
-16.03000038163946
 20
116.7749984740213
 30
0.0
 11
-14.88000038163945
 21
116.8999984740213
 31
0.0
  0
LINE
  5
1AF
330
55
100
AcDbEntity
  8
0
  6
Continuous
 62
     7
100
AcDbLine
 10
21.99999961836054
 20
150.8499984740213
 30
0.0
 11
21.99999961836054
 21
162.3703869327134
 31
0.0
  0
LINE
  5
1B0
330
55
100
AcDbEntity
  8
0
  6
Continuous
 62
     7
100
AcDbLine
 10
21.99999961836054
 20
120.2499984740213
 30
0.0
 11
21.99999961836054
 21
115.4999984740213
 31
0.0
  0
LINE
  5
1B1
330
55
100
AcDbEntity
  8
0
  6
Continuous
 62
     7
100
AcDbLine
 10
14.89999961836053
 20
150.8499984740213
 30
0.0
 11
21.99999961836054
 21
150.8499984740213
 31
0.0
  0
LINE
  5
1B2
330
55
100
AcDbEntity
  8
0
  6
Continuous
 62
     7
100
AcDbLine
 10
14.86458321837283
 20
115.4999984740213
 30
0.0
 11
21.99999961836054
 21
115.4999984740213
 31
0.0
  0
LINE
  5
1B3
330
55
100
AcDbEntity
  8
0
  6
Continuous
 62
     7
100
AcDbLine
 10
-16.53000038163947
 20
121.7999984740213
 30
0.0
 11
-20.60000038163946
 21
121.7999984740213
 31
0.0
  0
LINE
  5
1B4
330
55
100
AcDbEntity
  8
0
  6
Continuous
 62
     7
100
AcDbLine
 10
-20.49356186702821
 20
171.5083299854258
 30
0.0
 11
-20.22961263348521
 21
171.9655034685411
 31
0.0
  0
LINE
  5
1B5
330
55
100
AcDbEntity
  8
0
  6
Continuous
 62
     7
100
AcDbLine
 10
-20.22961263348521
 20
171.9655034685411
 30
0.0
 11
-19.3029654514359
 21
171.430503468541
 31
0.0
  0
LINE
  5
1B6
330
55
100
AcDbEntity
  8
0
  6
Continuous
 62
     7
100
AcDbLine
 10
-22.46546545143587
 20
165.9528927896045
 30
0.0
 11
-19.3029654514359
 21
171.430503468541
 31
0.0
  0
LINE
  5
1B7
330
55
100
AcDbEntity
  8
0
  6
Continuous
 62
     7
100
AcDbLine
 10
21.99999961836054
 20
162.3703869327134
 30
0.0
 11
13.89999961836053
 21
176.3999984740213
 31
0.0
  0
ARC
  5
1B8
330
55
100
AcDbEntity
  8
0
  6
Continuous
 62
     7
100
AcDbCircle
 10
-0.00264665653311
 20
122.2616640597749
 30
0.0
 40
3.35000000000001
100
AcDbArc
 50
311.3165829300436
 51
357.5849578586676
  0
ARC
  5
1B9
330
55
100
AcDbEntity
  8
0
  6
Continuous
 62
     7
100
AcDbCircle
 10
1.94499961836056
 20
120.0459984740213
 30
0.0
 40
0.4000000000000158
100
AcDbArc
 50
173.076279155947
 51
311.3165829300416
  0
ARC
  5
1BA
330
55
100
AcDbEntity
  8
0
  6
Continuous
 62
     7
100
AcDbCircle
 10
17.66999961836053
 20
125.4923389182631
 30
0.0
 40
1.999999999999991
100
AcDbArc
 50
180.0000000000028
 51
240.0000000000004
  0
ARC
  5
1BB
330
55
100
AcDbEntity
  8
0
  6
Continuous
 62
     7
100
AcDbCircle
 10
0.35666758735431
 20
120.2388750129772
 30
0.0
 40
1.199999999999998
100
AcDbArc
 50
353.0762791559324
 51
79.29351303112027
  0
ARC
  5
1BC
330
55
100
AcDbEntity
  8
0
  6
Continuous
 62
     7
100
AcDbCircle
 10
21.24999961836054
 20
120.2499984740213
 30
0.0
 40
0.75
100
AcDbArc
 50
0.0
 51
59.99999999999892
  0
ARC
  5
1BD
330
55
100
AcDbEntity
  8
0
  6
Continuous
 62
     7
100
AcDbCircle
 10
2.95761741648127
 20
125.4999984740213
 30
0.0
 40
0.4999999999999852
100
AcDbArc
 50
14.99999999999323
 51
90.0
  0
ARC
  5
1BE
330
55
100
AcDbEntity
  8
0
  6
Continuous
 62
     7
100
AcDbCircle
 10
2.84499961836056
 20
125.4999984740213
 30
0.0
 40
0.5
100
AcDbArc
 50
90.0
 51
180.0
  0
ARC
  5
1BF
330
55
100
AcDbEntity
  8
0
  6
Continuous
 62
     7
100
AcDbCircle
 10
2.64499961836055
 20
123.1499984740213
 30
0.0
 40
0.2999999999999901
100
AcDbArc
 50
180.0
 51
270.0
  0
ARC
  5
1C0
330
55
100
AcDbEntity
  8
0
  6
Continuous
 62
     7
100
AcDbCircle
 10
2.64499961836055
 20
122.1499984740213
 30
0.0
 40
0.6999999999999883
100
AcDbArc
 50
357.5849578586677
 51
90.0
  0
ARC
  5
1C1
330
55
100
AcDbEntity
  8
0
  6
Continuous
 62
     7
100
AcDbCircle
 10
-2.43000038163946
 20
105.4999984740213
 30
0.0
 40
16.19999999999996
100
AcDbArc
 50
79.29351303112064
 51
102.3352321792814
  0
ARC
  5
1C2
330
55
100
AcDbEntity
  8
0
  6
Continuous
 62
     7
100
AcDbCircle
 10
-15.00500038163944
 20
125.4999984740213
 30
0.0
 40
0.5
100
AcDbArc
 50
0.0
 51
90.0
  0
ARC
  5
1C3
330
55
100
AcDbEntity
  8
0
  6
Continuous
 62
     7
100
AcDbCircle
 10
-15.50500038163944
 20
125.4999984740213
 30
0.0
 40
0.5
100
AcDbArc
 50
90.0
 51
180.0
  0
ARC
  5
1C4
330
55
100
AcDbEntity
  8
0
  6
Continuous
 62
     7
100
AcDbCircle
 10
-12.44000038163945
 20
119.1499984740213
 30
0.0
 40
2.0
100
AcDbArc
 50
270.0
 51
325.6719647666217
  0
ARC
  5
1C5
330
55
100
AcDbEntity
  8
0
  6
Continuous
 62
     7
100
AcDbCircle
 10
-4.1817757986312
 20
113.5106965015606
 30
0.0
 40
8.000000000000082
100
AcDbArc
 50
102.3352321792813
 51
145.6719647666238
  0
ARC
  5
1C6
330
55
100
AcDbEntity
  8
0
  6
Continuous
 62
     7
100
AcDbCircle
 10
20.53438062296072
 20
120.357485832826
 30
0.0
 40
7.466042194497652
100
AcDbArc
 50
181.208676570733
 51
220.5876661228486
  0
ENDBLK
  5
57
330
55
100
AcDbEntity
  8
0
100
AcDbBlockEnd
  0
BLOCK
  5
5A
330
58
100
AcDbEntity
  8
0
100
AcDbBlockBegin
  2
Rckans1
 70
     0
 10
-3.00000000008492
 20
145.9499992131687
 30
0.0
  3
Rckans1
  1

  0
INSERT
  5
59
330
58
100
AcDbEntity
  8
0
100
AcDbBlockReference
  2
UKN_35_BU-select__3
 10
-28.00000038163947
 20
115.4999984740213
 30
0.0
  0
MTEXT
  5
1C7
330
58
100
AcDbEntity
  8
1
 62
     6
100
AcDbMText
 10
-3.00000000008492
 20
110.49999999995
 30
0.0
 40
5.0
 41
0.0
 71
     2
 72
     1
  1
 
  7
CONVERTER_11
 73
     1
 44
1.32052821128451
  0
ENDBLK
  5
5B
330
58
100
AcDbEntity
  8
0
100
AcDbBlockEnd
  0
BLOCK
  5
5D
330
5C
100
AcDbEntity
  8
0
100
AcDbBlockBegin
  2
UKN_35_BU-select__4
 70
     0
 10
-65.99999999999956
 20
115.4999984740211
 30
0.0
  3
UKN_35_BU-select__4
  1

  0
LINE
  5
1C8
330
5C
100
AcDbEntity
  8
0
  6
Continuous
 62
     7
100
AcDbLine
 10
-50.99999999999955
 20
120.9999984740211
 30
0.0
 11
-50.99999999999955
 21
127.4999984740211
 31
0.0
  0
LINE
  5
1C9
330
5C
100
AcDbEntity
  8
0
  6
Continuous
 62
     7
100
AcDbLine
 10
-65.99999999999956
 20
123.760288110694
 30
0.0
 11
-65.99999999999956
 21
120.8995175268594
 31
0.0
  0
LINE
  5
1CA
330
5C
100
AcDbEntity
  8
0
  6
Continuous
 62
     7
100
AcDbLine
 10
-64.99999999999956
 20
120.9999984740211
 30
0.0
 11
-50.99999999999955
 21
120.9999984740211
 31
0.0
  0
LINE
  5
1CB
330
5C
100
AcDbEntity
  8
0
  6
Continuous
 62
     7
100
AcDbLine
 10
-54.83499999999955
 20
137.5749984740211
 30
0.0
 11
-50.99999999999955
 21
137.5749984740211
 31
0.0
  0
LINE
  5
1CC
330
5C
100
AcDbEntity
  8
0
  6
Continuous
 62
     7
100
AcDbLine
 10
-64.49999999999956
 20
158.2499984740211
 30
0.0
 11
-50.99999999999955
 21
158.2499984740211
 31
0.0
  0
LINE
  5
1CD
330
5C
100
AcDbEntity
  8
0
  6
Continuous
 62
     7
100
AcDbLine
 10
-50.99999999999955
 20
131.3499984740211
 30
0.0
 11
-50.99999999999955
 21
127.4999984740211
 31
0.0
  0
LINE
  5
1CE
330
5C
100
AcDbEntity
  8
0
  6
Continuous
 62
     7
100
AcDbLine
 10
-50.99999999999955
 20
153.4499984740211
 30
0.0
 11
-50.99999999999955
 21
158.2499984740211
 31
0.0
  0
LINE
  5
1CF
330
5C
100
AcDbEntity
  8
0
  6
Continuous
 62
     7
100
AcDbLine
 10
-50.99999999999955
 20
153.4499984740211
 30
0.0
 11
-65.14999999999955
 21
153.4499984740211
 31
0.0
  0
LINE
  5
1D0
330
5C
100
AcDbEntity
  8
0
  6
Continuous
 62
     7
100
AcDbLine
 10
-50.99999999999955
 20
120.2499984740211
 30
0.0
 11
-50.99999999999955
 21
120.9999984740211
 31
0.0
  0
LINE
  5
1D1
330
5C
100
AcDbEntity
  8
0
  6
Continuous
 62
     7
100
AcDbLine
 10
-50.99999999999955
 20
176.3999984740211
 30
0.0
 11
-50.99999999999955
 21
158.2499984740211
 31
0.0
  0
LINE
  5
1D2
330
5C
100
AcDbEntity
  8
0
  6
Continuous
 62
     7
100
AcDbLine
 10
-64.49999999999956
 20
176.3999984740211
 30
0.0
 11
-50.99999999999955
 21
176.3999984740211
 31
0.0
  0
LINE
  5
1D3
330
5C
100
AcDbEntity
  8
0
  6
Continuous
 62
     7
100
AcDbLine
 10
-65.99999999999956
 20
162.3703869327132
 30
0.0
 11
-65.99999999999956
 21
176.3999984740211
 31
0.0
  0
LINE
  5
1D4
330
5C
100
AcDbEntity
  8
0
  6
Continuous
 62
     2
100
AcDbLine
 10
-65.99999999999956
 20
123.760288110694
 30
0.0
 11
-64.99999999999956
 21
123.760288110694
 31
0.0
  0
LINE
  5
1D5
330
5C
100
AcDbEntity
  8
0
  6
Continuous
 62
     7
100
AcDbLine
 10
-65.99999999999956
 20
123.760288110694
 30
0.0
 11
-65.99999999999956
 21
125.4923389182629
 31
0.0
  0
LINE
  5
1D6
330
5C
100
AcDbEntity
  8
0
  6
Continuous
 62
     7
100
AcDbLine
 10
-64.99999999999956
 20
123.760288110694
 30
0.0
 11
-64.99999999999956
 21
125.4923389182629
 31
0.0
  0
LINE
  5
1D7
330
5C
100
AcDbEntity
  8
0
  6
Continuous
 62
     7
100
AcDbLine
 10
-50.99999999999955
 20
131.3499984740211
 30
0.0
 11
-65.99999999999956
 21
131.3499984740211
 31
0.0
  0
LINE
  5
1D8
330
5C
100
AcDbEntity
  8
0
  6
Continuous
 62
     7
100
AcDbLine
 10
-50.99999999999955
 20
127.4999984740211
 30
0.0
 11
-65.99999999999956
 21
127.4999984740211
 31
0.0
  0
LINE
  5
1D9
330
5C
100
AcDbEntity
  8
0
  6
Continuous
 62
     7
100
AcDbLine
 10
-64.49999999999956
 20
176.3999984740211
 30
0.0
 11
-64.49999999999956
 21
162.3703869327132
 31
0.0
  0
LINE
  5
1DA
330
5C
100
AcDbEntity
  8
0
  6
Continuous
 62
     7
100
AcDbLine
 10
-64.49999999999956
 20
176.3999984740211
 30
0.0
 11
-65.99999999999956
 21
176.3999984740211
 31
0.0
  0
LINE
  5
1DB
330
5C
100
AcDbEntity
  8
0
  6
Continuous
 62
     7
100
AcDbLine
 10
-64.99999999999956
 20
120.8995175268594
 30
0.0
 11
-64.99999999999956
 21
120.9999984740211
 31
0.0
  0
LINE
  5
1DC
330
5C
100
AcDbEntity
  8
0
  6
Continuous
 62
     7
100
AcDbLine
 10
-65.99999999999956
 20
120.8995175268594
 30
0.0
 11
-65.99999999999956
 21
120.2499984740211
 31
0.0
  0
LINE
  5
1DD
330
5C
100
AcDbEntity
  8
0
  6
Continuous
 62
     2
100
AcDbLine
 10
-65.99999999999956
 20
120.8995175268594
 30
0.0
 11
-64.99999999999956
 21
120.8995175268594
 31
0.0
  0
LINE
  5
1DE
330
5C
100
AcDbEntity
  8
0
  6
Continuous
 62
     7
100
AcDbLine
 10
-64.99999999999956
 20
120.9999984740211
 30
0.0
 11
-64.99999999999956
 21
123.760288110694
 31
0.0
  0
LINE
  5
1DF
330
5C
100
AcDbEntity
  8
0
  6
Continuous
 62
     7
100
AcDbLine
 10
-54.38499999999945
 20
153.1949063040212
 30
0.0
 11
-51.99999999999955
 21
153.1949063040218
 31
0.0
  0
LINE
  5
1E0
330
5C
100
AcDbEntity
  8
0
  6
Continuous
 62
     7
100
AcDbLine
 10
-64.99999999999956
 20
144.0949063040217
 30
0.0
 11
-63.48499999999956
 21
144.0949063040218
 31
0.0
  0
LINE
  5
1E1
330
5C
100
AcDbEntity
  8
0
  6
Continuous
 62
     7
100
AcDbLine
 10
-51.99999999999955
 20
138.0949063040217
 30
0.0
 11
-64.99999999999956
 21
138.0949063040217
 31
0.0
  0
LINE
  5
1E2
330
5C
100
AcDbEntity
  8
0
  6
Continuous
 62
     7
100
AcDbLine
 10
-64.99999999999956
 20
138.0949063040217
 30
0.0
 11
-64.99999999999956
 21
144.0949063040217
 31
0.0
  0
LINE
  5
1E3
330
5C
100
AcDbEntity
  8
0
  6
Continuous
 62
     7
100
AcDbLine
 10
-65.14999999999955
 20
137.5749984740211
 30
0.0
 11
-62.13499999999955
 21
137.5749984740211
 31
0.0
  0
LINE
  5
1E4
330
5C
100
AcDbEntity
  8
0
  6
Continuous
 62
     7
100
AcDbLine
 10
-62.13499999999955
 20
137.5749984740211
 30
0.0
 11
-62.13499999999955
 21
136.3499984740211
 31
0.0
  0
LINE
  5
1E5
330
5C
100
AcDbEntity
  8
0
  6
Continuous
 62
     2
100
AcDbLine
 10
-63.48499999999956
 20
139.5949063040217
 30
0.0
 11
-63.48499999999956
 21
144.0949063040218
 31
0.0
  0
LINE
  5
1E6
330
5C
100
AcDbEntity
  8
0
  6
Continuous
 62
     7
100
AcDbLine
 10
-65.14999999999955
 20
143.6475592077601
 30
0.0
 11
-65.14999999999955
 21
137.5749984740211
 31
0.0
  0
LINE
  5
1E7
330
5C
100
AcDbEntity
  8
0
  6
Continuous
 62
     7
100
AcDbLine
 10
-64.99999999999956
 20
153.1949063040217
 30
0.0
 11
-62.58499999999965
 21
153.1949063040212
 31
0.0
  0
LINE
  5
1E8
330
5C
100
AcDbEntity
  8
0
  6
Continuous
 62
     7
100
AcDbLine
 10
-62.58499999999965
 20
153.1949063040212
 30
0.0
 11
-54.38499999999945
 21
153.1949063040212
 31
0.0
  0
LINE
  5
1E9
330
5C
100
AcDbEntity
  8
0
  6
Continuous
 62
     7
100
AcDbLine
 10
-62.58499999999965
 20
153.4499984740211
 30
0.0
 11
-62.58499999999965
 21
153.1949063040212
 31
0.0
  0
LINE
  5
1EA
330
5C
100
AcDbEntity
  8
0
  6
Continuous
 62
     7
100
AcDbLine
 10
-63.48499999999956
 20
144.0949063040218
 30
0.0
 11
-63.48499999999956
 21
147.1949063040216
 31
0.0
  0
LINE
  5
1EB
330
5C
100
AcDbEntity
  8
0
  6
Continuous
 62
     2
100
AcDbLine
 10
-53.48499999999956
 20
139.5949063040217
 30
0.0
 11
-63.48499999999956
 21
139.5949063040217
 31
0.0
  0
LINE
  5
1EC
330
5C
100
AcDbEntity
  8
0
  6
Continuous
 62
     2
100
AcDbLine
 10
-63.48499999999956
 20
147.1949063040216
 30
0.0
 11
-63.48499999999956
 21
151.6949063040217
 31
0.0
  0
LINE
  5
1ED
330
5C
100
AcDbEntity
  8
0
  6
Continuous
 62
     7
100
AcDbLine
 10
-63.48499999999956
 20
147.1949063040216
 30
0.0
 11
-64.99999999999956
 21
147.1949063040217
 31
0.0
  0
LINE
  5
1EE
330
5C
100
AcDbEntity
  8
0
  6
Continuous
 62
     2
100
AcDbLine
 10
-63.48499999999956
 20
151.6949063040217
 30
0.0
 11
-53.48499999999956
 21
151.6949063040217
 31
0.0
  0
LINE
  5
1EF
330
5C
100
AcDbEntity
  8
0
  6
Continuous
 62
     7
100
AcDbLine
 10
-65.99999999999956
 20
127.4999984740211
 30
0.0
 11
-65.99999999999956
 21
125.4923389182629
 31
0.0
  0
LINE
  5
1F0
330
5C
100
AcDbEntity
  8
0
  6
Continuous
 62
     7
100
AcDbLine
 10
-54.83499999999955
 20
136.3499984740211
 30
0.0
 11
-62.13499999999955
 21
136.3499984740211
 31
0.0
  0
LINE
  5
1F1
330
5C
100
AcDbEntity
  8
0
  6
Continuous
 62
     2
100
AcDbLine
 10
-51.99999999999955
 20
138.0949063040217
 30
0.0
 11
-51.98499999999956
 21
138.0949063040217
 31
0.0
  0
LINE
  5
1F2
330
5C
100
AcDbEntity
  8
0
  6
Continuous
 62
     7
100
AcDbLine
 10
-54.83499999999955
 20
136.3499984740211
 30
0.0
 11
-54.83499999999955
 21
137.5749984740211
 31
0.0
  0
LINE
  5
1F3
330
5C
100
AcDbEntity
  8
0
  6
Continuous
 62
     7
100
AcDbLine
 10
-50.99999999999955
 20
131.3499984740211
 30
0.0
 11
-50.99999999999955
 21
137.5749984740211
 31
0.0
  0
LINE
  5
1F4
330
5C
100
AcDbEntity
  8
0
  6
Continuous
 62
     7
100
AcDbLine
 10
-65.99999999999956
 20
143.6475592077601
 30
0.0
 11
-65.14999999999955
 21
143.6475592077601
 31
0.0
  0
LINE
  5
1F5
330
5C
100
AcDbEntity
  8
0
  6
Continuous
 62
     7
100
AcDbLine
 10
-65.14999999999955
 20
150.8499984740211
 30
0.0
 11
-65.99999999999956
 21
150.8499984740211
 31
0.0
  0
LINE
  5
1F6
330
5C
100
AcDbEntity
  8
0
  6
Continuous
 62
     7
100
AcDbLine
 10
-64.49999999999956
 20
162.3703869327132
 30
0.0
 11
-64.49999999999956
 21
158.2499984740211
 31
0.0
  0
LINE
  5
1F7
330
5C
100
AcDbEntity
  8
0
  6
Continuous
 62
     7
100
AcDbLine
 10
-64.49999999999956
 20
162.3703869327132
 30
0.0
 11
-65.99999999999956
 21
162.3703869327132
 31
0.0
  0
LINE
  5
1F8
330
5C
100
AcDbEntity
  8
0
  6
Continuous
 62
     7
100
AcDbLine
 10
-65.14999999999955
 20
153.4499984740211
 30
0.0
 11
-65.14999999999955
 21
150.8499984740211
 31
0.0
  0
LINE
  5
1F9
330
5C
100
AcDbEntity
  8
0
  6
Continuous
 62
     7
100
AcDbLine
 10
-65.14999999999955
 20
150.8499984740211
 30
0.0
 11
-65.14999999999955
 21
143.6475592077601
 31
0.0
  0
LINE
  5
1FA
330
5C
100
AcDbEntity
  8
0
  6
Continuous
 62
     7
100
AcDbLine
 10
-64.99999999999956
 20
147.1949063040217
 30
0.0
 11
-64.99999999999956
 21
153.1949063040217
 31
0.0
  0
LINE
  5
1FB
330
5C
100
AcDbEntity
  8
0
  6
Continuous
 62
     2
100
AcDbLine
 10
-51.98499999999956
 20
144.0949063040217
 30
0.0
 11
-51.99999999999955
 21
144.0949063040217
 31
0.0
  0
LINE
  5
1FC
330
5C
100
AcDbEntity
  8
0
  6
Continuous
 62
     2
100
AcDbLine
 10
-51.98499999999956
 20
153.1949063040218
 30
0.0
 11
-51.99999999999955
 21
153.1949063040218
 31
0.0
  0
LINE
  5
1FD
330
5C
100
AcDbEntity
  8
0
  6
Continuous
 62
     2
100
AcDbLine
 10
-51.99999999999955
 20
147.1949063040217
 30
0.0
 11
-51.98499999999956
 21
147.1949063040217
 31
0.0
  0
LINE
  5
1FE
330
5C
100
AcDbEntity
  8
0
  6
Continuous
 62
     2
100
AcDbLine
 10
-51.98499999999956
 20
147.1949063040217
 30
0.0
 11
-51.98499999999956
 21
153.1949063040218
 31
0.0
  0
LINE
  5
1FF
330
5C
100
AcDbEntity
  8
0
  6
Continuous
 62
     7
100
AcDbLine
 10
-65.99999999999956
 20
143.6475592077601
 30
0.0
 11
-65.99999999999956
 21
150.8499984740211
 31
0.0
  0
LINE
  5
200
330
5C
100
AcDbEntity
  8
0
  6
Continuous
 62
     7
100
AcDbLine
 10
-65.99999999999956
 20
150.8499984740211
 30
0.0
 11
-65.99999999999956
 21
162.3703869327132
 31
0.0
  0
LINE
  5
201
330
5C
100
AcDbEntity
  8
0
  6
Continuous
 62
     7
100
AcDbLine
 10
-65.99999999999956
 20
127.4999984740211
 30
0.0
 11
-65.99999999999956
 21
131.3499984740211
 31
0.0
  0
LINE
  5
202
330
5C
100
AcDbEntity
  8
0
  6
Continuous
 62
     7
100
AcDbLine
 10
-65.99999999999956
 20
131.3499984740211
 30
0.0
 11
-65.99999999999956
 21
143.6475592077601
 31
0.0
  0
LINE
  5
203
330
5C
100
AcDbEntity
  8
0
  6
Continuous
 62
     7
100
AcDbLine
 10
-54.38499999999945
 20
153.4499984740211
 30
0.0
 11
-54.38499999999945
 21
153.1949063040212
 31
0.0
  0
LINE
  5
204
330
5C
100
AcDbEntity
  8
0
  6
Continuous
 62
     7
100
AcDbLine
 10
-53.48499999999956
 20
147.1949063040217
 30
0.0
 11
-53.48499999999956
 21
144.0949063040217
 31
0.0
  0
LINE
  5
205
330
5C
100
AcDbEntity
  8
0
  6
Continuous
 62
     7
100
AcDbLine
 10
-51.99999999999955
 20
144.0949063040217
 30
0.0
 11
-51.99999999999955
 21
138.0949063040217
 31
0.0
  0
LINE
  5
206
330
5C
100
AcDbEntity
  8
0
  6
Continuous
 62
     7
100
AcDbLine
 10
-51.99999999999955
 20
147.1949063040217
 30
0.0
 11
-53.48499999999956
 21
147.1949063040217
 31
0.0
  0
LINE
  5
207
330
5C
100
AcDbEntity
  8
0
  6
Continuous
 62
     2
100
AcDbLine
 10
-53.48499999999956
 20
151.6949063040217
 30
0.0
 11
-53.48499999999956
 21
147.1949063040217
 31
0.0
  0
LINE
  5
208
330
5C
100
AcDbEntity
  8
0
  6
Continuous
 62
     2
100
AcDbLine
 10
-53.48499999999956
 20
144.0949063040217
 30
0.0
 11
-53.48499999999956
 21
139.5949063040217
 31
0.0
  0
LINE
  5
209
330
5C
100
AcDbEntity
  8
0
  6
Continuous
 62
     7
100
AcDbLine
 10
-53.48499999999956
 20
144.0949063040217
 30
0.0
 11
-51.99999999999955
 21
144.0949063040217
 31
0.0
  0
LINE
  5
20A
330
5C
100
AcDbEntity
  8
0
  6
Continuous
 62
     7
100
AcDbLine
 10
-51.99999999999955
 20
153.1949063040218
 30
0.0
 11
-51.99999999999955
 21
147.1949063040217
 31
0.0
  0
LINE
  5
20B
330
5C
100
AcDbEntity
  8
0
  6
Continuous
 62
     2
100
AcDbLine
 10
-51.98499999999956
 20
138.0949063040217
 30
0.0
 11
-51.98499999999956
 21
144.0949063040217
 31
0.0
  0
LINE
  5
20C
330
5C
100
AcDbEntity
  8
0
  6
Continuous
 62
     2
100
AcDbLine
 10
-65.99999999999956
 20
125.4923389182629
 30
0.0
 11
-64.99999999999956
 21
125.4923389182629
 31
0.0
  0
LINE
  5
20D
330
5C
100
AcDbEntity
  8
0
  6
Continuous
 62
     7
100
AcDbLine
 10
-50.99999999999955
 20
115.4999984740211
 30
0.0
 11
-50.99999999999955
 21
120.2499984740211
 31
0.0
  0
LINE
  5
20E
330
5C
100
AcDbEntity
  8
0
  6
Continuous
 62
     7
100
AcDbLine
 10
-65.99999999999956
 20
120.2499984740211
 30
0.0
 11
-65.99999999999956
 21
115.4999984740211
 31
0.0
  0
LINE
  5
20F
330
5C
100
AcDbEntity
  8
0
  6
Continuous
 62
     2
100
AcDbLine
 10
-65.99999999999956
 20
120.2499984740211
 30
0.0
 11
-50.99999999999955
 21
120.2499984740211
 31
0.0
  0
LINE
  5
210
330
5C
100
AcDbEntity
  8
0
  6
Continuous
 62
     7
100
AcDbLine
 10
-50.99999999999955
 20
115.4999984740211
 30
0.0
 11
-65.99999999999956
 21
115.4999984740211
 31
0.0
  0
LINE
  5
211
330
5C
100
AcDbEntity
  8
0
  6
Continuous
 62
     7
100
AcDbLine
 10
-50.99999999999955
 20
137.5749984740211
 30
0.0
 11
-50.99999999999955
 21
153.4499984740211
 31
0.0
  0
LINE
  5
212
330
5C
100
AcDbEntity
  8
1
  6
DOT_CENTER
 62
     2
100
AcDbLine
 10
-58.48499999999967
 20
136.5216539103712
 30
0.0
 11
-58.48499999999966
 21
157.416975265462
 31
0.0
  0
ENDBLK
  5
5E
330
5C
100
AcDbEntity
  8
0
100
AcDbBlockEnd
  0
BLOCK
  5
61
330
5F
100
AcDbEntity
  8
0
100
AcDbBlockBegin
  2
SA_Links1
 70
     0
 10
-58.49999999999955
 20
145.9499992131685
 30
0.0
  3
SA_Links1
  1

  0
INSERT
  5
60
330
5F
100
AcDbEntity
  8
0
100
AcDbBlockReference
  2
UKN_35_BU-select__4
 10
-65.99999999999956
 20
115.4999984740211
 30
0.0
  0
ENDBLK
  5
62
330
5F
100
AcDbEntity
  8
0
100
AcDbBlockEnd
  0
BLOCK
  5
64
330
63
100
AcDbEntity
  8
0
100
AcDbBlockBegin
  2
UKN_35_BU-select__5
 70
     0
 10
-202.9999999999999
 20
115.4999984740213
 30
0.0
  3
UKN_35_BU-select__5
  1

  0
LINE
  5
213
330
63
100
AcDbEntity
  8
0
  6
Continuous
 62
     7
100
AcDbLine
 10
-187.9999999999999
 20
173.3619492464944
 30
0.0
 11
-202.9999999999999
 21
173.3619492464944
 31
0.0
  0
LINE
  5
214
330
63
100
AcDbEntity
  8
0
  6
Continuous
 62
     7
100
AcDbLine
 10
-187.9999999999999
 20
171.5083299854258
 30
0.0
 11
-202.9999999999999
 21
171.5083299854258
 31
0.0
  0
LINE
  5
215
330
63
100
AcDbEntity
  8
0
  6
Continuous
 62
     7
100
AcDbLine
 10
-202.9999999999999
 20
171.430503468541
 30
0.0
 11
-187.9999999999999
 21
171.430503468541
 31
0.0
  0
LINE
  5
216
330
63
100
AcDbEntity
  8
0
  6
Continuous
 62
     7
100
AcDbLine
 10
-202.9999999999999
 20
167.1964470116511
 30
0.0
 11
-187.9999999999999
 21
167.1964470116511
 31
0.0
  0
LINE
  5
217
330
63
100
AcDbEntity
  8
0
  6
Continuous
 62
     7
100
AcDbLine
 10
-187.9999999999999
 20
171.5083299854258
 30
0.0
 11
-187.9999999999999
 21
171.430503468541
 31
0.0
  0
LINE
  5
218
330
63
100
AcDbEntity
  8
0
  6
Continuous
 62
     7
100
AcDbLine
 10
-187.9999999999999
 20
118.9999984740213
 30
0.0
 11
-187.9999999999999
 21
124.3999984740213
 31
0.0
  0
LINE
  5
219
330
63
100
AcDbEntity
  8
0
  6
Continuous
 62
     7
100
AcDbLine
 10
-187.9999999999999
 20
162.7167970942272
 30
0.0
 11
-187.9999999999999
 21
124.3999984740213
 31
0.0
  0
LINE
  5
21A
330
63
100
AcDbEntity
  8
0
  6
Continuous
 62
     7
100
AcDbLine
 10
-202.9999999999999
 20
116.7749984740213
 30
0.0
 11
-202.9999999999999
 21
115.4999984740213
 31
0.0
  0
LINE
  5
21B
330
63
100
AcDbEntity
  8
0
  6
Continuous
 62
     7
100
AcDbLine
 10
-202.9999999999999
 20
124.3999984740213
 30
0.0
 11
-202.9999999999999
 21
118.9999984740213
 31
0.0
  0
LINE
  5
21C
330
63
100
AcDbEntity
  8
0
  6
Continuous
 62
     7
100
AcDbLine
 10
-202.055
 20
134.9499984740213
 30
0.0
 11
-202.055
 21
136.4456586458011
 31
0.0
  0
LINE
  5
21D
330
63
100
AcDbEntity
  8
0
  6
Continuous
 62
     7
100
AcDbLine
 10
-202.9999999999999
 20
167.1964470116511
 30
0.0
 11
-202.9999999999999
 21
162.7167970942272
 31
0.0
  0
LINE
  5
21E
330
63
100
AcDbEntity
  8
0
  6
Continuous
 62
     7
100
AcDbLine
 10
-202.9999999999999
 20
171.430503468541
 30
0.0
 11
-202.9999999999999
 21
171.5083299854258
 31
0.0
  0
LINE
  5
21F
330
63
100
AcDbEntity
  8
0
  6
Continuous
 62
     7
100
AcDbLine
 10
-202.9999999999999
 20
162.7167970942272
 30
0.0
 11
-202.055
 21
162.7167970942272
 31
0.0
  0
LINE
  5
220
330
63
100
AcDbEntity
  8
0
  6
Continuous
 62
     7
100
AcDbLine
 10
-202.9999999999999
 20
173.3619492464944
 30
0.0
 11
-202.9999999999999
 21
171.5083299854258
 31
0.0
  0
LINE
  5
221
330
63
100
AcDbEntity
  8
0
  6
Continuous
 62
     7
100
AcDbLine
 10
-202.9999999999999
 20
173.3619492464944
 30
0.0
 11
-202.9999999999999
 21
176.3999984740213
 31
0.0
  0
LINE
  5
222
330
63
100
AcDbEntity
  8
0
  6
Continuous
 62
     7
100
AcDbLine
 10
-202.9999999999999
 20
171.430503468541
 30
0.0
 11
-202.9999999999999
 21
167.1964470116511
 31
0.0
  0
LINE
  5
223
330
63
100
AcDbEntity
  8
0
  6
Continuous
 62
     7
100
AcDbLine
 10
-202.055
 20
151.3734413264042
 30
0.0
 11
-202.055
 21
162.7167970942272
 31
0.0
  0
LINE
  5
224
330
63
100
AcDbEntity
  8
0
  6
Continuous
 62
     7
100
AcDbLine
 10
-202.055
 20
136.4456586458011
 30
0.0
 11
-202.055
 21
151.3734413264042
 31
0.0
  0
LINE
  5
225
330
63
100
AcDbEntity
  8
0
  6
Continuous
 62
     7
100
AcDbLine
 10
-202.9999999999999
 20
124.3999984740213
 30
0.0
 11
-202.9999999999999
 21
162.7167970942272
 31
0.0
  0
LINE
  5
226
330
63
100
AcDbEntity
  8
0
  6
Continuous
 62
     7
100
AcDbLine
 10
-202.055
 20
136.4456586458011
 30
0.0
 11
-200.5649999999999
 21
137.9356586458011
 31
0.0
  0
LINE
  5
227
330
63
100
AcDbEntity
  8
0
  6
Continuous
 62
     7
100
AcDbLine
 10
-200.5649999999999
 20
137.9356586458011
 30
0.0
 11
-200.5649999999999
 21
148.8532432012748
 31
0.0
  0
LINE
  5
228
330
63
100
AcDbEntity
  8
0
  6
Continuous
 62
     7
100
AcDbLine
 10
-190.4649999999999
 20
148.8532432012748
 30
0.0
 11
-190.2824936791154
 21
148.8532432012748
 31
0.0
  0
LINE
  5
229
330
63
100
AcDbEntity
  8
0
  6
Continuous
 62
     7
100
AcDbLine
 10
-190.4649999999999
 20
137.8967990728567
 30
0.0
 11
-190.4649999999999
 21
137.9356586458011
 31
0.0
  0
LINE
  5
22A
330
63
100
AcDbEntity
  8
0
  6
Continuous
 62
     7
100
AcDbLine
 10
-188.9749999999999
 20
136.4456586458011
 30
0.0
 11
-190.4649999999999
 21
137.9356586458011
 31
0.0
  0
LINE
  5
22B
330
63
100
AcDbEntity
  8
0
  6
Continuous
 62
     7
100
AcDbLine
 10
-190.4649999999999
 20
148.8532432012748
 30
0.0
 11
-190.4649999999999
 21
137.9356586458011
 31
0.0
  0
LINE
  5
22C
330
63
100
AcDbEntity
  8
0
  6
Continuous
 62
     7
100
AcDbLine
 10
-188.9749999999999
 20
151.3734413264042
 30
0.0
 11
-188.9749999999999
 21
162.7167970942272
 31
0.0
  0
LINE
  5
22D
330
63
100
AcDbEntity
  8
0
  6
Continuous
 62
     7
100
AcDbLine
 10
-188.9749999999999
 20
134.9499984740213
 30
0.0
 11
-188.9749999999999
 21
136.4456586458011
 31
0.0
  0
LINE
  5
22E
330
63
100
AcDbEntity
  8
0
  6
Continuous
 62
     7
100
AcDbLine
 10
-187.9999999999999
 20
162.7167970942272
 30
0.0
 11
-187.9999999999999
 21
167.1964470116511
 31
0.0
  0
LINE
  5
22F
330
63
100
AcDbEntity
  8
0
  6
Continuous
 62
     7
100
AcDbLine
 10
-188.9749999999999
 20
162.7167970942272
 30
0.0
 11
-187.9999999999999
 21
162.7167970942272
 31
0.0
  0
LINE
  5
230
330
63
100
AcDbEntity
  8
0
  6
Continuous
 62
     7
100
AcDbLine
 10
-187.9999999999999
 20
171.5083299854258
 30
0.0
 11
-187.9999999999999
 21
173.3619492464944
 31
0.0
  0
LINE
  5
231
330
63
100
AcDbEntity
  8
0
  6
Continuous
 62
     7
100
AcDbLine
 10
-187.9999999999999
 20
167.1964470116511
 30
0.0
 11
-187.9999999999999
 21
171.430503468541
 31
0.0
  0
LINE
  5
232
330
63
100
AcDbEntity
  8
0
  6
Continuous
 62
     7
100
AcDbLine
 10
-188.9749999999999
 20
136.4456586458011
 30
0.0
 11
-188.9749999999999
 21
151.3734413264042
 31
0.0
  0
LINE
  5
233
330
63
100
AcDbEntity
  8
0
  6
Continuous
 62
     7
100
AcDbLine
 10
-190.2824936791154
 20
148.8532432012748
 30
0.0
 11
-188.9749999999999
 21
151.3734413264042
 31
0.0
  0
LINE
  5
234
330
63
100
AcDbEntity
  8
0
  6
Continuous
 62
     7
100
AcDbLine
 10
-187.9999999999999
 20
116.7749984740213
 30
0.0
 11
-187.9999999999999
 21
116.8999984740213
 31
0.0
  0
LINE
  5
235
330
63
100
AcDbEntity
  8
0
  6
Continuous
 62
     7
100
AcDbLine
 10
-187.9999999999999
 20
115.4999984740213
 30
0.0
 11
-187.9999999999999
 21
116.7749984740213
 31
0.0
  0
LINE
  5
236
330
63
100
AcDbEntity
  8
0
  6
Continuous
 62
     7
100
AcDbLine
 10
-202.9999999999999
 20
115.4999984740213
 30
0.0
 11
-187.9999999999999
 21
115.4999984740213
 31
0.0
  0
LINE
  5
237
330
63
100
AcDbEntity
  8
0
  6
Continuous
 62
     7
100
AcDbLine
 10
-202.9999999999999
 20
124.3999984740213
 30
0.0
 11
-187.9999999999999
 21
124.3999984740213
 31
0.0
  0
LINE
  5
238
330
63
100
AcDbEntity
  8
0
  6
Continuous
 62
     7
100
AcDbLine
 10
-187.9999999999999
 20
116.8999984740213
 30
0.0
 11
-187.9999999999999
 21
118.3999984740213
 31
0.0
  0
LINE
  5
239
330
63
100
AcDbEntity
  8
0
  6
Continuous
 62
     7
100
AcDbLine
 10
-187.9999999999999
 20
116.7749984740213
 30
0.0
 11
-202.9999999999999
 21
116.7749984740213
 31
0.0
  0
LINE
  5
23A
330
63
100
AcDbEntity
  8
0
  6
Continuous
 62
     7
100
AcDbLine
 10
-187.9999999999999
 20
118.3999984740213
 30
0.0
 11
-187.9999999999999
 21
118.8999984740212
 31
0.0
  0
LINE
  5
23B
330
63
100
AcDbEntity
  8
0
  6
Continuous
 62
     7
100
AcDbLine
 10
-187.9999999999999
 20
118.8999984740212
 30
0.0
 11
-187.9999999999999
 21
118.9999984740213
 31
0.0
  0
LINE
  5
23C
330
63
100
AcDbEntity
  8
0
  6
Continuous
 62
     7
100
AcDbLine
 10
-202.9999999999999
 20
118.9999984740213
 30
0.0
 11
-187.9999999999999
 21
118.9999984740213
 31
0.0
  0
LINE
  5
23D
330
63
100
AcDbEntity
  8
0
  6
Continuous
 62
     7
100
AcDbLine
 10
-187.9999999999999
 20
118.3999984740213
 30
0.0
 11
-202.9999999999999
 21
118.3999984740213
 31
0.0
  0
LINE
  5
23E
330
63
100
AcDbEntity
  8
0
  6
Continuous
 62
     7
100
AcDbLine
 10
-187.9999999999999
 20
118.8999984740212
 30
0.0
 11
-202.9999999999999
 21
118.8999984740213
 31
0.0
  0
LINE
  5
23F
330
63
100
AcDbEntity
  8
0
  6
Continuous
 62
     7
100
AcDbLine
 10
-187.9999999999999
 20
116.8999984740213
 30
0.0
 11
-202.9999999999999
 21
116.8999984740213
 31
0.0
  0
LINE
  5
240
330
63
100
AcDbEntity
  8
0
  6
Continuous
 62
     7
100
AcDbLine
 10
-200.7475063208844
 20
148.8532432012748
 30
0.0
 11
-200.5649999999999
 21
148.8532432012748
 31
0.0
  0
LINE
  5
241
330
63
100
AcDbEntity
  8
0
  6
Continuous
 62
     7
100
AcDbLine
 10
-202.055
 20
162.7167970942272
 30
0.0
 11
-188.9749999999999
 21
162.7167970942272
 31
0.0
  0
LINE
  5
242
330
63
100
AcDbEntity
  8
0
  6
Continuous
 62
     7
100
AcDbLine
 10
-200.5649999999999
 20
148.8532432012748
 30
0.0
 11
-190.4649999999999
 21
148.8532432012748
 31
0.0
  0
LINE
  5
243
330
63
100
AcDbEntity
  8
0
  6
Continuous
 62
     7
100
AcDbLine
 10
-200.5649999999999
 20
137.8967990728567
 30
0.0
 11
-200.5649999999999
 21
137.9356586458011
 31
0.0
  0
LINE
  5
244
330
63
100
AcDbEntity
  8
0
  6
Continuous
 62
     7
100
AcDbLine
 10
-190.4649999999999
 20
137.8967990728567
 30
0.0
 11
-200.5649999999999
 21
137.8967990728567
 31
0.0
  0
LINE
  5
245
330
63
100
AcDbEntity
  8
0
  6
Continuous
 62
     7
100
AcDbLine
 10
-188.9749999999999
 20
134.9499984740213
 30
0.0
 11
-202.055
 21
134.9499984740213
 31
0.0
  0
LINE
  5
246
330
63
100
AcDbEntity
  8
0
  6
Continuous
 62
     7
100
AcDbLine
 10
-202.9999999999999
 20
118.9999984740213
 30
0.0
 11
-202.9999999999999
 21
118.8999984740213
 31
0.0
  0
LINE
  5
247
330
63
100
AcDbEntity
  8
0
  6
Continuous
 62
     7
100
AcDbLine
 10
-202.9999999999999
 20
118.8999984740213
 30
0.0
 11
-202.9999999999999
 21
118.3999984740213
 31
0.0
  0
LINE
  5
248
330
63
100
AcDbEntity
  8
0
  6
Continuous
 62
     7
100
AcDbLine
 10
-202.9999999999999
 20
116.8999984740213
 30
0.0
 11
-202.9999999999999
 21
116.7749984740213
 31
0.0
  0
LINE
  5
249
330
63
100
AcDbEntity
  8
0
  6
Continuous
 62
     7
100
AcDbLine
 10
-202.9999999999999
 20
118.3999984740213
 30
0.0
 11
-202.9999999999999
 21
116.8999984740213
 31
0.0
  0
LINE
  5
24A
330
63
100
AcDbEntity
  8
0
  6
Continuous
 62
     7
100
AcDbLine
 10
-187.9999999999999
 20
176.3999984740213
 30
0.0
 11
-187.9999999999999
 21
173.3619492464944
 31
0.0
  0
LINE
  5
24B
330
63
100
AcDbEntity
  8
0
  6
Continuous
 62
     7
100
AcDbLine
 10
-202.9999999999999
 20
176.3999984740213
 30
0.0
 11
-187.9999999999999
 21
176.3999984740213
 31
0.0
  0
LINE
  5
24C
330
63
100
AcDbEntity
  8
0
  6
Continuous
 62
     7
100
AcDbLine
 10
-200.7475063208844
 20
148.8532432012748
 30
0.0
 11
-202.055
 21
151.3734413264042
 31
0.0
  0
ENDBLK
  5
65
330
63
100
AcDbEntity
  8
0
100
AcDbBlockEnd
  0
BLOCK
  5
68
330
66
100
AcDbEntity
  8
0
100
AcDbBlockBegin
  2
SA_Rechts1
 70
     0
 10
-195.4999999999999
 20
145.9499992131687
 30
0.0
  3
SA_Rechts1
  1

  0
INSERT
  5
67
330
66
100
AcDbEntity
  8
0
100
AcDbBlockReference
  2
UKN_35_BU-select__5
 10
-202.9999999999999
 20
115.4999984740213
 30
0.0
  0
MTEXT
  5
24D
330
66
100
AcDbEntity
  8
1
 62
     6
100
AcDbMText
 10
-195.5000000000001
 20
110.49999999995
 30
0.0
 40
5.0
 41
0.0
 71
     2
 72
     1
  1
 
  7
CONVERTER_11
 73
     1
 44
1.32052821128451
  0
ENDBLK
  5
69
330
66
100
AcDbEntity
  8
0
100
AcDbBlockEnd
  0
BLOCK
  5
6B
330
6A
100
AcDbEntity
  8
0
100
AcDbBlockBegin
  2
UKN_35_BU-select__6
 70
     0
 10
-142.9999996183655
 20
113.4999984740211
 30
0.0
  3
UKN_35_BU-select__6
  1

  0
LINE
  5
24E
330
6A
100
AcDbEntity
  8
0
  6
Continuous
 62
     7
100
AcDbLine
 10
-120.3749996183655
 20
156.2499984740211
 30
0.0
 11
-142.9999996183655
 21
156.2499984740211
 31
0.0
  0
LINE
  5
24F
330
6A
100
AcDbEntity
  8
0
  6
Continuous
 62
     7
100
AcDbLine
 10
-142.9999996183655
 20
160.3703869327132
 30
0.0
 11
-142.9999996183655
 21
156.2499984740211
 31
0.0
  0
LINE
  5
250
330
6A
100
AcDbEntity
  8
0
  6
Continuous
 62
     7
100
AcDbLine
 10
-142.9999996183655
 20
113.4999984740211
 30
0.0
 11
-142.9999996183655
 21
118.2499984740211
 31
0.0
  0
LINE
  5
251
330
6A
100
AcDbEntity
  8
0
  6
Continuous
 62
     7
100
AcDbLine
 10
-142.9999996183655
 20
151.4499984740211
 30
0.0
 11
-142.9999996183655
 21
156.2499984740211
 31
0.0
  0
LINE
  5
252
330
6A
100
AcDbEntity
  8
0
  6
Continuous
 62
     7
100
AcDbLine
 10
-142.9999996183655
 20
129.3499984740211
 30
0.0
 11
-139.4059941926601
 21
135.5749984740211
 31
0.0
  0
LINE
  5
253
330
6A
100
AcDbEntity
  8
0
  6
Continuous
 62
     7
100
AcDbLine
 10
-142.9999996183655
 20
151.4499984740211
 30
0.0
 11
-142.9999996183655
 21
148.8499984740211
 31
0.0
  0
LINE
  5
254
330
6A
100
AcDbEntity
  8
0
  6
Continuous
 62
     7
100
AcDbLine
 10
-142.6249996183655
 20
118.8995175268594
 30
0.0
 11
-137.6699996183655
 21
121.760288110694
 31
0.0
  0
LINE
  5
255
330
6A
100
AcDbEntity
  8
0
  6
Continuous
 62
     7
100
AcDbLine
 10
-116.1499996183653
 20
151.4499984740211
 30
0.0
 11
-142.9999996183655
 21
151.4499984740211
 31
0.0
  0
LINE
  5
256
330
6A
100
AcDbEntity
  8
0
  6
Continuous
 62
     7
100
AcDbLine
 10
-116.1499996183653
 20
135.5749984740211
 30
0.0
 11
-139.4059941926601
 21
135.5749984740211
 31
0.0
  0
LINE
  5
257
330
6A
100
AcDbEntity
  8
0
  6
Continuous
 62
     7
100
AcDbLine
 10
-141.4999996183655
 20
114.5499984740211
 30
0.0
 11
-141.4999996183655
 21
118.2499984740211
 31
0.0
  0
LINE
  5
258
330
6A
100
AcDbEntity
  8
0
  6
Continuous
 62
     7
100
AcDbLine
 10
-135.8999996183655
 20
148.8499984740211
 30
0.0
 11
-135.8999996183655
 21
141.6475592077601
 31
0.0
  0
LINE
  5
259
330
6A
100
AcDbEntity
  8
0
  6
Continuous
 62
     7
100
AcDbLine
 10
-135.8999996183655
 20
141.6475592077601
 30
0.0
 11
-139.4059941926601
 21
135.5749984740211
 31
0.0
  0
LINE
  5
25A
330
6A
100
AcDbEntity
  8
0
  6
Continuous
 62
     7
100
AcDbLine
 10
-136.6699996183655
 20
114.5499984740211
 30
0.0
 11
-141.4999996183655
 21
114.5499984740211
 31
0.0
  0
LINE
  5
25B
330
6A
100
AcDbEntity
  8
0
  6
Continuous
 62
     7
100
AcDbLine
 10
-121.0499996183653
 20
151.1949063040212
 30
0.0
 11
-116.1499996183653
 21
151.1949063040218
 31
0.0
  0
LINE
  5
25C
330
6A
100
AcDbEntity
  8
0
  6
Continuous
 62
     7
100
AcDbLine
 10
-104.4699996183655
 20
119.7999984740211
 30
0.0
 11
-104.9949996183655
 21
122.1681204384437
 31
0.0
  0
LINE
  5
25D
330
6A
100
AcDbEntity
  8
0
  6
Continuous
 62
     7
100
AcDbLine
 10
-100.3999996183655
 20
119.7999984740211
 30
0.0
 11
-104.4699996183655
 21
119.7999984740211
 31
0.0
  0
LINE
  5
25E
330
6A
100
AcDbEntity
  8
0
  6
Continuous
 62
     7
100
AcDbLine
 10
-92.9999996183655
 20
122.3999984740211
 30
0.0
 11
-96.64999961836551
 21
122.3999984740211
 31
0.0
  0
LINE
  5
25F
330
6A
100
AcDbEntity
  8
0
  6
Continuous
 62
     7
100
AcDbLine
 10
-97.60788736651975
 20
164.4878927896043
 30
0.0
 11
-98.5345345485691
 21
163.9528927896043
 31
0.0
  0
LINE
  5
260
330
6A
100
AcDbEntity
  8
0
  6
Continuous
 62
     7
100
AcDbLine
 10
-97.87183660006271
 20
164.9450662727195
 30
0.0
 11
-97.60788736651975
 21
164.4878927896043
 31
0.0
  0
LINE
  5
261
330
6A
100
AcDbEntity
  8
0
  6
Continuous
 62
     7
100
AcDbLine
 10
-95.5863267040655
 20
165.1964470116509
 30
0.0
 11
-97.87183660006271
 21
164.9450662727195
 31
0.0
  0
LINE
  5
262
330
6A
100
AcDbEntity
  8
0
  6
Continuous
 62
     7
100
AcDbLine
 10
-95.5863267040655
 20
165.1964470116509
 30
0.0
 11
-92.9999996183655
 21
160.716797094227
 31
0.0
  0
LINE
  5
263
330
6A
100
AcDbEntity
  8
0
  6
Continuous
 62
     7
100
AcDbLine
 10
-96.64999961836551
 20
122.3999984740211
 30
0.0
 11
-96.64999961836551
 21
116.9999984740211
 31
0.0
  0
LINE
  5
264
330
6A
100
AcDbEntity
  8
0
  6
Continuous
 62
     7
100
AcDbLine
 10
-96.64999961836551
 20
116.9999984740211
 30
0.0
 11
-100.2449996183655
 21
116.9999984740211
 31
0.0
  0
LINE
  5
265
330
6A
100
AcDbEntity
  8
0
  6
Continuous
 62
     7
100
AcDbLine
 10
-100.3999996183655
 20
118.5987484740211
 30
0.0
 11
-100.3999996183655
 21
119.7999984740211
 31
0.0
  0
LINE
  5
266
330
6A
100
AcDbEntity
  8
0
  6
Continuous
 62
     7
100
AcDbLine
 10
-101.1949996183655
 20
117.9499984740211
 30
0.0
 11
-101.1949996183655
 21
118.3999984740211
 31
0.0
  0
LINE
  5
267
330
6A
100
AcDbEntity
  8
0
  6
Continuous
 62
     7
100
AcDbLine
 10
-106.1199996183655
 20
114.8999984740211
 30
0.0
 11
-104.9699996183655
 21
114.7749984740211
 31
0.0
  0
LINE
  5
268
330
6A
100
AcDbEntity
  8
0
  6
Continuous
 62
     7
100
AcDbLine
 10
-104.9699996183655
 20
114.7749984740211
 30
0.0
 11
-104.9699996183655
 21
113.4999984740211
 31
0.0
  0
LINE
  5
269
330
6A
100
AcDbEntity
  8
0
  6
Continuous
 62
     7
100
AcDbLine
 10
-104.9949996183655
 20
122.1681204384437
 30
0.0
 11
-104.9949996183655
 21
123.4999984740211
 31
0.0
  0
LINE
  5
26A
330
6A
100
AcDbEntity
  8
0
  6
Continuous
 62
     7
100
AcDbLine
 10
-104.9699996183655
 20
113.4999984740211
 30
0.0
 11
-107.9199996183655
 21
113.4999984740211
 31
0.0
  0
LINE
  5
26B
330
6A
100
AcDbEntity
  8
0
  6
Continuous
 62
     7
100
AcDbLine
 10
-105.4949996183655
 20
123.9999984740211
 30
0.0
 11
-105.9949996183655
 21
123.9999984740211
 31
0.0
  0
LINE
  5
26C
330
6A
100
AcDbEntity
  8
0
  6
Continuous
 62
     7
100
AcDbLine
 10
-106.1199996183655
 20
116.3999984740211
 30
0.0
 11
-106.1199996183655
 21
114.8999984740211
 31
0.0
  0
LINE
  5
26D
330
6A
100
AcDbEntity
  8
0
  6
Continuous
 62
     7
100
AcDbLine
 10
-106.4949996183655
 20
123.4999984740211
 30
0.0
 11
-106.4949996183655
 21
122.4256163910071
 31
0.0
  0
LINE
  5
26E
330
6A
100
AcDbEntity
  8
0
  6
Continuous
 62
     7
100
AcDbLine
 10
-105.2699996183655
 20
116.8999984740211
 30
0.0
 11
-105.2699996183655
 21
116.3999984740211
 31
0.0
  0
LINE
  5
26F
330
6A
100
AcDbEntity
  8
0
  6
Continuous
 62
     7
100
AcDbLine
 10
-105.2699996183655
 20
116.3999984740211
 30
0.0
 11
-106.1199996183655
 21
116.3999984740211
 31
0.0
  0
LINE
  5
270
330
6A
100
AcDbEntity
  8
0
  6
Continuous
 62
     7
100
AcDbLine
 10
-134.1499996183653
 20
145.1949063040217
 30
0.0
 11
-116.1499996183653
 21
145.1949063040217
 31
0.0
  0
LINE
  5
271
330
6A
100
AcDbEntity
  8
0
  6
Continuous
 62
     7
100
AcDbLine
 10
-107.9199996183655
 20
115.1499984740211
 30
0.0
 11
-108.5599996183655
 21
115.1499984740211
 31
0.0
  0
LINE
  5
272
330
6A
100
AcDbEntity
  8
0
  6
Continuous
 62
     7
100
AcDbLine
 10
-107.9199996183655
 20
113.4999984740211
 30
0.0
 11
-107.9199996183655
 21
115.1499984740211
 31
0.0
  0
LINE
  5
273
330
6A
100
AcDbEntity
  8
0
  6
Continuous
 62
     7
100
AcDbLine
 10
-106.4949996183655
 20
122.4256163910071
 30
0.0
 11
-105.2699996183655
 21
116.8999984740211
 31
0.0
  0
LINE
  5
274
330
6A
100
AcDbEntity
  8
0
  6
Continuous
 62
     7
100
AcDbLine
 10
-116.1499996183653
 20
136.0949063040217
 30
0.0
 11
-134.1499996183653
 21
136.0949063040217
 31
0.0
  0
LINE
  5
275
330
6A
100
AcDbEntity
  8
0
  6
Continuous
 62
     7
100
AcDbLine
 10
-101.1949996183655
 20
118.3999984740211
 30
0.0
 11
-100.3999996183655
 21
118.5987484740211
 31
0.0
  0
LINE
  5
276
330
6A
100
AcDbEntity
  8
0
  6
Continuous
 62
     7
100
AcDbLine
 10
-100.2449996183655
 20
116.9999984740211
 30
0.0
 11
-101.1949996183655
 21
117.9499984740211
 31
0.0
  0
LINE
  5
277
330
6A
100
AcDbEntity
  8
0
  6
Continuous
 62
     7
100
AcDbLine
 10
-116.1499996183653
 20
142.0949063040217
 30
0.0
 11
-134.1499996183653
 21
142.0949063040217
 31
0.0
  0
LINE
  5
278
330
6A
100
AcDbEntity
  8
0
  6
Continuous
 62
     7
100
AcDbLine
 10
-135.8645832183778
 20
113.4999984740211
 30
0.0
 11
-142.9999996183655
 21
113.4999984740211
 31
0.0
  0
LINE
  5
279
330
6A
100
AcDbEntity
  8
0
  6
Continuous
 62
     7
100
AcDbLine
 10
-142.9999996183655
 20
125.4999984740211
 30
0.0
 11
-136.6699996183655
 21
125.4999984740211
 31
0.0
  0
LINE
  5
27A
330
6A
100
AcDbEntity
  8
0
  6
Continuous
 62
     7
100
AcDbLine
 10
-142.9999996183655
 20
129.3499984740211
 30
0.0
 11
-142.9999996183655
 21
125.4999984740211
 31
0.0
  0
LINE
  5
27B
330
6A
100
AcDbEntity
  8
0
  6
Continuous
 62
     7
100
AcDbLine
 10
-142.9999996183655
 20
148.8499984740211
 30
0.0
 11
-135.8999996183655
 21
148.8499984740211
 31
0.0
  0
LINE
  5
27C
330
6A
100
AcDbEntity
  8
0
  6
Continuous
 62
     7
100
AcDbLine
 10
-134.1499996183653
 20
151.1949063040218
 30
0.0
 11
-129.2499996183654
 21
151.1949063040212
 31
0.0
  0
LINE
  5
27D
330
6A
100
AcDbEntity
  8
0
  6
Continuous
 62
     7
100
AcDbLine
 10
-135.0949996183655
 20
118.5999984740211
 30
0.0
 11
-134.0699996183655
 21
118.3999984740211
 31
0.0
  0
LINE
  5
27E
330
6A
100
AcDbEntity
  8
0
  6
Continuous
 62
     7
100
AcDbLine
 10
-134.0699996183655
 20
118.3999984740211
 30
0.0
 11
-134.0699996183655
 21
118.1999984740201
 31
0.0
  0
LINE
  5
27F
330
6A
100
AcDbEntity
  8
0
  6
Continuous
 62
     7
100
AcDbLine
 10
-134.1699996183655
 20
120.0004103761273
 30
0.0
 11
-135.1949996183655
 21
119.7999984740211
 31
0.0
  0
LINE
  5
280
330
6A
100
AcDbEntity
  8
0
  6
Continuous
 62
     7
100
AcDbLine
 10
-134.1699996183655
 20
120.6999984740211
 30
0.0
 11
-134.1699996183655
 21
120.0004103761273
 31
0.0
  0
LINE
  5
281
330
6A
100
AcDbEntity
  8
0
  6
Continuous
 62
     7
100
AcDbLine
 10
-135.1949996183655
 20
119.7999984740211
 30
0.0
 11
-135.0949996183655
 21
118.5999984740211
 31
0.0
  0
LINE
  5
282
330
6A
100
AcDbEntity
  8
0
  6
Continuous
 62
     7
100
AcDbLine
 10
-136.6699996183655
 20
114.5499984740211
 30
0.0
 11
-136.6699996183655
 21
123.4923389182629
 31
0.0
  0
LINE
  5
283
330
6A
100
AcDbEntity
  8
0
  6
Continuous
 62
     7
100
AcDbLine
 10
-134.1499996183653
 20
145.1949063040217
 30
0.0
 11
-134.1499996183653
 21
142.0949063040217
 31
0.0
  0
LINE
  5
284
330
6A
100
AcDbEntity
  8
0
  6
Continuous
 62
     7
100
AcDbLine
 10
-134.1499996183653
 20
142.0949063040217
 30
0.0
 11
-134.1499996183653
 21
136.0949063040217
 31
0.0
  0
LINE
  5
285
330
6A
100
AcDbEntity
  8
0
  6
Continuous
 62
     7
100
AcDbLine
 10
-135.2699996183655
 20
123.2972787731555
 30
0.0
 11
-135.2699996183655
 21
122.1079342694335
 31
0.0
  0
LINE
  5
286
330
6A
100
AcDbEntity
  8
0
  6
Continuous
 62
     7
100
AcDbLine
 10
-136.6699996183655
 20
123.4923389182629
 30
0.0
 11
-136.6699996183655
 21
125.4999984740211
 31
0.0
  0
LINE
  5
287
330
6A
100
AcDbEntity
  8
0
  6
Continuous
 62
     7
100
AcDbLine
 10
-134.1499996183653
 20
151.1949063040218
 30
0.0
 11
-134.1499996183653
 21
145.1949063040217
 31
0.0
  0
LINE
  5
288
330
6A
100
AcDbEntity
  8
0
  6
Continuous
 62
     7
100
AcDbLine
 10
-135.2699996183655
 20
122.1079342694335
 30
0.0
 11
-134.1699996183655
 21
120.6999984740211
 31
0.0
  0
LINE
  5
289
330
6A
100
AcDbEntity
  8
0
  6
Continuous
 62
     7
100
AcDbLine
 10
-130.8586747529603
 20
122.8999984740211
 30
0.0
 11
-135.2699996183655
 21
123.2972787731555
 31
0.0
  0
LINE
  5
28A
330
6A
100
AcDbEntity
  8
0
  6
Continuous
 62
     7
100
AcDbLine
 10
-120.3749996183655
 20
174.3999984740211
 30
0.0
 11
-100.8999996183655
 21
174.3999984740211
 31
0.0
  0
LINE
  5
28B
330
6A
100
AcDbEntity
  8
0
  6
Continuous
 62
     7
100
AcDbLine
 10
-99.14598107904152
 20
171.3619492464942
 30
0.0
 11
-100.8999996183655
 21
174.3999984740211
 31
0.0
  0
LINE
  5
28C
330
6A
100
AcDbEntity
  8
0
  6
Continuous
 62
     7
100
AcDbLine
 10
-100.7703873665198
 20
169.9655034685409
 30
0.0
 11
-100.5064381329768
 21
169.5083299854256
 31
0.0
  0
LINE
  5
28D
330
6A
100
AcDbEntity
  8
0
  6
Continuous
 62
     7
100
AcDbLine
 10
-99.14598107904152
 20
171.3619492464942
 30
0.0
 11
-100.5064381329768
 21
169.5083299854256
 31
0.0
  0
LINE
  5
28E
330
6A
100
AcDbEntity
  8
0
  6
Continuous
 62
     7
100
AcDbLine
 10
-101.6970345485691
 20
169.4305034685409
 30
0.0
 11
-100.7703873665198
 21
169.9655034685409
 31
0.0
  0
LINE
  5
28F
330
6A
100
AcDbEntity
  8
0
  6
Continuous
 62
     7
100
AcDbLine
 10
-134.8999996183655
 20
174.3999984740211
 30
0.0
 11
-120.3749996183655
 21
174.3999984740211
 31
0.0
  0
LINE
  5
290
330
6A
100
AcDbEntity
  8
0
  6
Continuous
 62
     7
100
AcDbLine
 10
-101.6970345485691
 20
169.4305034685409
 30
0.0
 11
-98.5345345485691
 21
163.9528927896043
 31
0.0
  0
LINE
  5
291
330
6A
100
AcDbEntity
  8
0
  6
Continuous
 62
     7
100
AcDbLine
 10
-120.3749996183655
 20
174.3999984740211
 30
0.0
 11
-120.3749996183655
 21
156.2499984740211
 31
0.0
  0
LINE
  5
292
330
6A
100
AcDbEntity
  8
0
  6
Continuous
 62
     7
100
AcDbLine
 10
-121.0499996183653
 20
151.4499984740211
 30
0.0
 11
-121.0499996183653
 21
151.1949063040212
 31
0.0
  0
LINE
  5
293
330
6A
100
AcDbEntity
  8
0
  6
Continuous
 62
     7
100
AcDbLine
 10
-92.9999996183655
 20
122.3999984740211
 30
0.0
 11
-92.9999996183655
 21
160.716797094227
 31
0.0
  0
LINE
  5
294
330
6A
100
AcDbEntity
  8
0
  6
Continuous
 62
     7
100
AcDbLine
 10
-116.1499996183653
 20
151.1949063040218
 30
0.0
 11
-116.1499996183653
 21
151.4499984740211
 31
0.0
  0
LINE
  5
295
330
6A
100
AcDbEntity
  8
0
  6
Continuous
 62
     7
100
AcDbLine
 10
-116.1499996183653
 20
145.1949063040217
 30
0.0
 11
-116.1499996183653
 21
151.1949063040218
 31
0.0
  0
LINE
  5
296
330
6A
100
AcDbEntity
  8
0
  6
Continuous
 62
     7
100
AcDbLine
 10
-116.1499996183653
 20
135.5749984740211
 30
0.0
 11
-116.1499996183653
 21
136.0949063040217
 31
0.0
  0
LINE
  5
297
330
6A
100
AcDbEntity
  8
0
  6
Continuous
 62
     7
100
AcDbLine
 10
-116.1499996183653
 20
142.0949063040217
 30
0.0
 11
-116.1499996183653
 21
145.1949063040217
 31
0.0
  0
LINE
  5
298
330
6A
100
AcDbEntity
  8
0
  6
Continuous
 62
     7
100
AcDbLine
 10
-116.1499996183653
 20
136.0949063040217
 30
0.0
 11
-116.1499996183653
 21
142.0949063040217
 31
0.0
  0
LINE
  5
299
330
6A
100
AcDbEntity
  8
0
  6
Continuous
 62
     7
100
AcDbLine
 10
-129.2499996183654
 20
151.1949063040212
 30
0.0
 11
-121.0499996183653
 21
151.1949063040212
 31
0.0
  0
LINE
  5
29A
330
6A
100
AcDbEntity
  8
0
  6
Continuous
 62
     7
100
AcDbLine
 10
-123.3449996183655
 20
121.1499984740211
 30
0.0
 11
-123.3449996183655
 21
123.4999984740211
 31
0.0
  0
LINE
  5
29B
330
6A
100
AcDbEntity
  8
0
  6
Continuous
 62
     7
100
AcDbLine
 10
-123.8449996183655
 20
123.9999984740211
 30
0.0
 11
-123.9576174164862
 21
123.9999984740211
 31
0.0
  0
LINE
  5
29C
330
6A
100
AcDbEntity
  8
0
  6
Continuous
 62
     7
100
AcDbLine
 10
-129.2499996183654
 20
151.4499984740211
 30
0.0
 11
-129.2499996183654
 21
151.1949063040212
 31
0.0
  0
LINE
  5
29D
330
6A
100
AcDbEntity
  8
0
  6
Continuous
 62
     7
100
AcDbLine
 10
-124.7699996183655
 20
122.3999984740211
 30
0.0
 11
-130.5699996183655
 21
122.3999984740211
 31
0.0
  0
LINE
  5
29E
330
6A
100
AcDbEntity
  8
0
  6
Continuous
 62
     7
100
AcDbLine
 10
-130.5699996183655
 20
122.3999984740211
 30
0.0
 11
-130.8586747529603
 21
122.8999984740211
 31
0.0
  0
LINE
  5
29F
330
6A
100
AcDbEntity
  8
0
  6
Continuous
 62
     7
100
AcDbLine
 10
-124.4405803296308
 20
123.6294079965724
 30
0.0
 11
-124.7699996183655
 21
122.3999984740211
 31
0.0
  0
LINE
  5
2A0
330
6A
100
AcDbEntity
  8
0
  6
Continuous
 62
     7
100
AcDbLine
 10
-134.8999996183655
 20
174.3999984740211
 30
0.0
 11
-142.9999996183655
 21
160.3703869327132
 31
0.0
  0
LINE
  5
2A1
330
6A
100
AcDbEntity
  8
1
  6
DOT_CENTER
 62
     2
100
AcDbLine
 10
-125.1499996183652
 20
155.496178878308
 30
0.0
 11
-125.1499996183657
 21
134.939754270886
 31
0.0
  0
ARC
  5
2A2
330
6A
100
AcDbEntity
  8
0
  6
Continuous
 62
     7
100
AcDbCircle
 10
-142.2499996183655
 20
118.2499984740211
 30
0.0
 40
0.7499999999999755
100
AcDbArc
 50
120.0000000000011
 51
180.0
  0
ARC
  5
2A3
330
6A
100
AcDbEntity
  8
0
  6
Continuous
 62
     7
100
AcDbCircle
 10
-142.2499996183655
 20
118.2499984740211
 30
0.0
 40
0.75
100
AcDbArc
 50
0.0
 51
120.0000000000011
  0
ARC
  5
2A4
330
6A
100
AcDbEntity
  8
0
  6
Continuous
 62
     7
100
AcDbCircle
 10
-118.5699996183655
 20
103.4999984740211
 30
0.0
 40
16.19999999999999
100
AcDbArc
 50
77.66476782071881
 51
100.7064869688794
  0
ARC
  5
2A5
330
6A
100
AcDbEntity
  8
0
  6
Continuous
 62
     7
100
AcDbCircle
 10
-116.8182242013738
 20
111.5106965015605
 30
0.0
 40
7.999999999999992
100
AcDbArc
 50
34.3280352333763
 51
77.66476782071874
  0
ARC
  5
2A6
330
6A
100
AcDbEntity
  8
0
  6
Continuous
 62
     7
100
AcDbCircle
 10
-108.5599996183655
 20
117.1499984740211
 30
0.0
 40
2.000000000000039
100
AcDbArc
 50
214.3280352333747
 51
270.0
  0
ARC
  5
2A7
330
6A
100
AcDbEntity
  8
0
  6
Continuous
 62
     7
100
AcDbCircle
 10
-105.4949996183655
 20
123.4999984740211
 30
0.0
 40
0.5
100
AcDbArc
 50
0.0
 51
90.0
  0
ARC
  5
2A8
330
6A
100
AcDbEntity
  8
0
  6
Continuous
 62
     7
100
AcDbCircle
 10
-105.9949996183655
 20
123.4999984740211
 30
0.0
 40
0.5
100
AcDbArc
 50
90.0
 51
180.0
  0
ARC
  5
2A9
330
6A
100
AcDbEntity
  8
0
  6
Continuous
 62
     7
100
AcDbCircle
 10
-138.6699996183655
 20
123.4923389182629
 30
0.0
 40
2.000000000000016
100
AcDbArc
 50
299.9999999999997
 51
0.0
  0
ARC
  5
2AA
330
6A
100
AcDbEntity
  8
0
  6
Continuous
 62
     7
100
AcDbCircle
 10
-141.5343806229657
 20
118.3574858328258
 30
0.0
 40
7.466042194497652
100
AcDbArc
 50
319.4123338771515
 51
358.791323429267
  0
ARC
  5
2AB
330
6A
100
AcDbEntity
  8
0
  6
Continuous
 62
     7
100
AcDbCircle
 10
-123.9576174164862
 20
123.4999984740211
 30
0.0
 40
0.5
100
AcDbArc
 50
90.0
 51
164.9999999999978
  0
ARC
  5
2AC
330
6A
100
AcDbEntity
  8
0
  6
Continuous
 62
     7
100
AcDbCircle
 10
-123.8449996183655
 20
123.4999984740211
 30
0.0
 40
0.5
100
AcDbArc
 50
0.0
 51
90.0
  0
ARC
  5
2AD
330
6A
100
AcDbEntity
  8
0
  6
Continuous
 62
     7
100
AcDbCircle
 10
-123.6449996183655
 20
121.1499984740211
 30
0.0
 40
0.2999999999999972
100
AcDbArc
 50
270.0
 51
0.0
  0
ARC
  5
2AE
330
6A
100
AcDbEntity
  8
0
  6
Continuous
 62
     7
100
AcDbCircle
 10
-123.6449996183655
 20
120.1499984740211
 30
0.0
 40
0.7000000000000028
100
AcDbArc
 50
90.0
 51
182.4150421413321
  0
ARC
  5
2AF
330
6A
100
AcDbEntity
  8
0
  6
Continuous
 62
     7
100
AcDbCircle
 10
-120.9973533434719
 20
120.2616640597747
 30
0.0
 40
3.349999999999964
100
AcDbArc
 50
182.4150421413324
 51
228.6834170699566
  0
ARC
  5
2B0
330
6A
100
AcDbEntity
  8
0
  6
Continuous
 62
     7
100
AcDbCircle
 10
-122.9449996183655
 20
118.0459984740211
 30
0.0
 40
0.4000000000000415
100
AcDbArc
 50
228.6834170699525
 51
6.92372084406847
  0
ARC
  5
2B1
330
6A
100
AcDbEntity
  8
0
  6
Continuous
 62
     7
100
AcDbCircle
 10
-121.3566675873593
 20
118.238875012977
 30
0.0
 40
1.20000000000003
100
AcDbArc
 50
100.706486968879
 51
186.9237208440627
  0
ENDBLK
  5
6C
330
6A
100
AcDbEntity
  8
0
100
AcDbBlockEnd
  0
BLOCK
  5
6F
330
6D
100
AcDbEntity
  8
0
100
AcDbBlockBegin
  2
Vordans1
 70
     0
 10
-117.9999999999201
 20
143.9499992131685
 30
0.0
  3
Vordans1
  1

  0
INSERT
  5
6E
330
6D
100
AcDbEntity
  8
0
100
AcDbBlockReference
  2
UKN_35_BU-select__6
 10
-142.9999996183655
 20
113.4999984740211
 30
0.0
  0
LINE
  5
2B2
330
6D
100
AcDbEntity
  8
1
  6
Continuous
 62
     2
100
AcDbLine
 10
-117.8999996183655
 20
121.422134446138
 30
0.0
 11
-117.8999996183655
 21
116.422134446138
 31
0.0
  0
MTEXT
  5
2B3
330
6D
100
AcDbEntity
  8
1
 62
     6
100
AcDbMText
 10
-117.9999999999199
 20
108.49999999995
 30
0.0
 40
5.0
 41
0.0
 71
     2
 72
     1
  1
 
  7
CONVERTER_11
 73
     1
 44
1.32052821128451
  0
DIMENSION
  5
2BE
330
6D
100
AcDbEntity
  8
1
100
AcDbDimension
  2
*D18
 10
-160.9999996183655
 20
113.4999984740211
 30
0.0
 11
-164.4249996183655
 21
142.488059791641
 31
0.0
 70
    32
  1
<>
 71
     5
 42
-1.0
 53
90.0
  3
ME10_DIM_11
100
AcDbAlignedDimension
 13
-120.3749996183655
 23
174.3999984740211
 33
0.0
 14
-142.9999996183655
 24
113.4999984740211
 34
0.0
 50
90.0
100
AcDbRotatedDimension
  0
DIMENSION
  5
2C9
330
6D
100
AcDbEntity
  8
1
100
AcDbDimension
  2
*D19
 10
-152.9999996183655
 20
119.7999984740211
 30
0.0
 11
-156.4249996183655
 21
147.546017784598
 31
0.0
 70
    32
  1
<>
 71
     5
 42
-1.0
 53
90.0
  3
ME10_DIM_12
100
AcDbAlignedDimension
 13
-134.8999996183655
 23
174.3999984740211
 33
0.0
 14
-100.3999996183655
 24
119.7999984740211
 34
0.0
 50
90.0
100
AcDbRotatedDimension
  0
DIMENSION
  5
2D4
330
6D
100
AcDbEntity
  8
1
100
AcDbDimension
  2
*D20
 10
-117.8999996183654
 20
100.975544979743
 30
0.0
 11
-110.545012645988
 21
104.900544979743
 31
0.0
 70
    32
  1
<>
 71
     5
 42
-1.0
 53
0.00013888888889
  3
ME10_DIM_13
100
AcDbAlignedDimension
 13
-100.3999996183655
 23
118.5987484740211
 33
0.0
 14
-117.8999996183655
 24
116.422134446138
 34
0.0
100
AcDbRotatedDimension
  0
DIMENSION
  5
2DF
330
6D
100
AcDbEntity
  8
1
100
AcDbDimension
  2
*D21
 10
-117.8999996183654
 20
91.7518042154679
 30
0.0
 11
-105.911893704608
 21
95.6768042154679
 31
0.0
 70
    32
  1
<>
 71
     5
 42
-1.0
 53
0.00013888888889
  3
ME10_DIM_14
100
AcDbAlignedDimension
 13
-92.9999996183655
 23
122.3999984740211
 33
0.0
 14
-117.8999996183655
 24
116.422134446138
 34
0.0
100
AcDbRotatedDimension
  0
DIMENSION
  5
2EA
330
6D
100
AcDbEntity
  8
1
100
AcDbDimension
  2
*D22
 10
-92.99999961836549
 20
79.58167871306799
 30
0.0
 11
-117.8999996183655
 21
83.33167871306799
 31
0.0
 70
    32
  1
<>
 71
     5
 42
-1.0
 53
0.00013888888889
  3
ME10_DIM_15
100
AcDbAlignedDimension
 13
-142.9999996183655
 23
151.4499984740211
 33
0.0
 14
-92.9999996183655
 24
122.3999984740211
 34
0.0
100
AcDbRotatedDimension
  0
ENDBLK
  5
70
330
6D
100
AcDbEntity
  8
0
100
AcDbBlockEnd
  0
BLOCK
  5
72
330
71
100
AcDbEntity
  8
0
100
AcDbBlockBegin
  2
_rahmen
 70
     0
 10
55.20031771255866
 20
-0.73403482704907
 30
0.0
  3
_rahmen
  1

  0
LINE
  5
2EB
330
71
100
AcDbEntity
  8
1
  6
Continuous
 62
     6
100
AcDbLine
 10
-74.34448681419136
 20
29.76596517295104
 30
0.0
 11
55.20031771256035
 21
29.76596517295104
 31
0.0
  0
LINE
  5
2EC
330
71
100
AcDbEntity
  8
1
  6
Continuous
 62
     7
100
AcDbLine
 10
-56.14448681419134
 20
8.51596517295104
 30
0.0
 11
-37.94448681419144
 21
8.51596517295104
 31
0.0
  0
LINE
  5
2ED
330
71
100
AcDbEntity
  8
1
  6
Continuous
 62
     6
100
AcDbLine
 10
-56.14448681419134
 20
4.26596517295104
 30
0.0
 11
-74.34448681419136
 21
4.26596517295093
 31
0.0
  0
LINE
  5
2EE
330
71
100
AcDbEntity
  8
1
  6
Continuous
 62
     7
100
AcDbLine
 10
-56.14448681419134
 20
8.51596517295104
 30
0.0
 11
-56.14448681419134
 21
4.26596517295104
 31
0.0
  0
LINE
  5
2EF
330
71
100
AcDbEntity
  8
1
  6
Continuous
 62
     7
100
AcDbLine
 10
-37.94448681419144
 20
8.51596517295104
 30
0.0
 11
-37.94448681419144
 21
4.26596517295093
 31
0.0
  0
LINE
  5
2F0
330
71
100
AcDbEntity
  8
1
  6
Continuous
 62
     7
100
AcDbLine
 10
-74.34448681419136
 20
8.51596517295093
 30
0.0
 11
-74.34448681419136
 21
4.26596517295093
 31
0.0
  0
LINE
  5
2F1
330
71
100
AcDbEntity
  8
1
  6
Continuous
 62
     7
100
AcDbLine
 10
-74.34448681419136
 20
8.51596517295093
 30
0.0
 11
-56.14448681419134
 21
8.51596517295104
 31
0.0
  0
LINE
  5
2F2
330
71
100
AcDbEntity
  8
1
  6
Continuous
 62
     2
100
AcDbLine
 10
-65.10783192762875
 20
27.89096517295096
 30
0.0
 11
-65.10783192762875
 21
22.89096517295096
 31
0.0
  0
LINE
  5
2F3
330
71
100
AcDbEntity
  8
1
  6
Continuous
 62
     2
100
AcDbLine
 10
-65.10783192762875
 20
22.89096517295096
 30
0.0
 11
-70.10783192762875
 21
24.14096517295096
 31
0.0
  0
LINE
  5
2F4
330
71
100
AcDbEntity
  8
1
  6
Continuous
 62
     2
100
AcDbLine
 10
-70.10783192762875
 20
24.14096517295096
 30
0.0
 11
-70.10783192762875
 21
26.64096517295096
 31
0.0
  0
LINE
  5
2F5
330
71
100
AcDbEntity
  8
1
  6
Continuous
 62
     2
100
AcDbLine
 10
-70.10783192762875
 20
26.64096517295096
 30
0.0
 11
-65.10783192762875
 21
27.89096517295096
 31
0.0
  0
LINE
  5
2F6
330
71
100
AcDbEntity
  8
1
  6
Continuous
 62
     6
100
AcDbLine
 10
-196.7996822874396
 20
4.26596517295104
 30
0.0
 11
-231.7996822874395
 21
4.26596517295104
 31
0.0
  0
LINE
  5
2F7
330
71
100
AcDbEntity
  8
1
  6
Continuous
 62
     6
100
AcDbLine
 10
55.20031771256035
 20
21.26596517295104
 30
0.0
 11
55.20031771255995
 21
12.76596517295104
 31
0.0
  0
LINE
  5
2F8
330
71
100
AcDbEntity
  8
1
  6
Continuous
 62
     6
100
AcDbLine
 10
-37.94448681419144
 20
4.26596517295093
 30
0.0
 11
-38.29968228744136
 21
4.26596517295104
 31
0.0
  0
LINE
  5
2F9
330
71
100
AcDbEntity
  8
1
  6
Continuous
 62
     6
100
AcDbLine
 10
-190.5996822874416
 20
4.26596517295093
 30
0.0
 11
-196.7996822874396
 21
4.26596517295104
 31
0.0
  0
LINE
  5
2FA
330
71
100
AcDbEntity
  8
1
  6
Continuous
 62
     7
100
AcDbLine
 10
-37.94448681419144
 20
21.26596517295104
 30
0.0
 11
-37.94448681419144
 21
8.51596517295104
 31
0.0
  0
LINE
  5
2FB
330
71
100
AcDbEntity
  8
1
  6
Continuous
 62
     7
100
AcDbLine
 10
-74.34448681419136
 20
21.26596517295104
 30
0.0
 11
-74.34448681419136
 21
8.51596517295093
 31
0.0
  0
LINE
  5
2FC
330
71
100
AcDbEntity
  8
1
  6
Continuous
 62
     6
100
AcDbLine
 10
-88.29968228744133
 20
4.26596517295104
 30
0.0
 11
-138.2996822874416
 21
4.26596517295104
 31
0.0
  0
LINE
  5
2FD
330
71
100
AcDbEntity
  8
1
  6
Continuous
 62
     6
100
AcDbLine
 10
-190.5996822874416
 20
4.26596517295093
 30
0.0
 11
-188.2996822874413
 21
4.26596517295104
 31
0.0
  0
LINE
  5
2FE
330
71
100
AcDbEntity
  8
1
  6
Continuous
 62
     6
100
AcDbLine
 10
-37.94448681419144
 20
4.26596517295093
 30
0.0
 11
11.70031771255864
 21
4.26596517295104
 31
0.0
  0
LINE
  5
2FF
330
71
100
AcDbEntity
  8
1
  6
Continuous
 62
     6
100
AcDbLine
 10
55.20031771255866
 20
4.26596517295104
 30
0.0
 11
55.20031771255995
 21
12.76596517295104
 31
0.0
  0
LINE
  5
300
330
71
100
AcDbEntity
  8
1
  6
Continuous
 62
     2
100
AcDbLine
 10
-236.7996822874404
 20
4.26596517295104
 30
0.0
 11
-236.7996822874404
 21
-0.73403482704907
 31
0.0
  0
LINE
  5
301
330
71
100
AcDbEntity
  8
1
  6
Continuous
 62
     2
100
AcDbLine
 10
-231.7996822874395
 20
4.26596517295104
 30
0.0
 11
-236.7996822874404
 21
4.26596517295104
 31
0.0
  0
LINE
  5
302
330
71
100
AcDbEntity
  8
1
  6
Continuous
 62
     2
100
AcDbLine
 10
-231.7996822874395
 20
-0.73403482704907
 30
0.0
 11
-188.2996822874413
 21
-0.73403482704907
 31
0.0
  0
LINE
  5
303
330
71
100
AcDbEntity
  8
1
  6
Continuous
 62
     2
100
AcDbLine
 10
-231.7996822874395
 20
4.26596517295104
 30
0.0
 11
-231.7996822874395
 21
-0.73403482704907
 31
0.0
  0
LINE
  5
304
330
71
100
AcDbEntity
  8
1
  6
Continuous
 62
     2
100
AcDbLine
 10
11.70031771255864
 20
-0.73403482704907
 30
0.0
 11
-38.29968228744136
 21
-0.73403482704907
 31
0.0
  0
LINE
  5
305
330
71
100
AcDbEntity
  8
1
  6
Continuous
 62
     2
100
AcDbLine
 10
11.70031771255864
 20
-0.73403482704907
 30
0.0
 11
11.70031771255864
 21
4.26596517295104
 31
0.0
  0
LINE
  5
306
330
71
100
AcDbEntity
  8
1
  6
Continuous
 62
     2
100
AcDbLine
 10
-38.29968228744136
 20
-0.73403482704907
 30
0.0
 11
-38.29968228744136
 21
4.26596517295104
 31
0.0
  0
LINE
  5
307
330
71
100
AcDbEntity
  8
1
  6
Continuous
 62
     2
100
AcDbLine
 10
-88.29968228744133
 20
-0.73403482704907
 30
0.0
 11
-38.29968228744136
 21
-0.73403482704907
 31
0.0
  0
LINE
  5
308
330
71
100
AcDbEntity
  8
1
  6
Continuous
 62
     2
100
AcDbLine
 10
-88.29968228744133
 20
-0.73403482704907
 30
0.0
 11
-88.29968228744133
 21
4.26596517295104
 31
0.0
  0
LINE
  5
309
330
71
100
AcDbEntity
  8
1
  6
Continuous
 62
     2
100
AcDbLine
 10
-138.2996822874416
 20
-0.73403482704907
 30
0.0
 11
-88.29968228744133
 21
-0.73403482704907
 31
0.0
  0
LINE
  5
30A
330
71
100
AcDbEntity
  8
1
  6
Continuous
 62
     2
100
AcDbLine
 10
-138.2996822874416
 20
-0.73403482704907
 30
0.0
 11
-138.2996822874416
 21
4.26596517295104
 31
0.0
  0
LINE
  5
30B
330
71
100
AcDbEntity
  8
1
  6
Continuous
 62
     2
100
AcDbLine
 10
-188.2996822874413
 20
-0.73403482704907
 30
0.0
 11
-138.2996822874416
 21
-0.73403482704907
 31
0.0
  0
LINE
  5
30C
330
71
100
AcDbEntity
  8
1
  6
Continuous
 62
     2
100
AcDbLine
 10
-188.2996822874413
 20
-0.73403482704907
 30
0.0
 11
-188.2996822874413
 21
4.26596517295104
 31
0.0
  0
LINE
  5
30D
330
71
100
AcDbEntity
  8
1
  6
Continuous
 62
     6
100
AcDbLine
 10
-231.7996822874396
 20
54.26596517295116
 30
0.0
 11
-231.7996822874395
 21
4.26596517295104
 31
0.0
  0
LINE
  5
30E
330
71
100
AcDbEntity
  8
1
  6
Continuous
 62
     2
100
AcDbLine
 10
-236.7996822874404
 20
54.26596517295116
 30
0.0
 11
-236.7996822874404
 21
4.26596517295104
 31
0.0
  0
LINE
  5
30F
330
71
100
AcDbEntity
  8
1
  6
Continuous
 62
     2
100
AcDbLine
 10
-236.7996822874404
 20
54.26596517295116
 30
0.0
 11
-231.7996822874396
 21
54.26596517295116
 31
0.0
  0
LINE
  5
310
330
71
100
AcDbEntity
  8
1
  6
Continuous
 62
     6
100
AcDbLine
 10
-231.7996822874399
 20
104.265965172951
 30
0.0
 11
-231.7996822874396
 21
54.26596517295116
 31
0.0
  0
LINE
  5
311
330
71
100
AcDbEntity
  8
1
  6
Continuous
 62
     2
100
AcDbLine
 10
-236.7996822874404
 20
104.265965172951
 30
0.0
 11
-236.7996822874404
 21
54.26596517295116
 31
0.0
  0
LINE
  5
312
330
71
100
AcDbEntity
  8
1
  6
Continuous
 62
     2
100
AcDbLine
 10
-236.7996822874404
 20
104.265965172951
 30
0.0
 11
-231.7996822874399
 21
104.265965172951
 31
0.0
  0
LINE
  5
313
330
71
100
AcDbEntity
  8
1
  6
Continuous
 62
     6
100
AcDbLine
 10
-231.7996822874404
 20
154.265965172951
 30
0.0
 11
-231.7996822874399
 21
104.265965172951
 31
0.0
  0
LINE
  5
314
330
71
100
AcDbEntity
  8
1
  6
Continuous
 62
     2
100
AcDbLine
 10
-236.7996822874404
 20
154.265965172951
 30
0.0
 11
-236.7996822874404
 21
104.265965172951
 31
0.0
  0
LINE
  5
315
330
71
100
AcDbEntity
  8
1
  6
Continuous
 62
     2
100
AcDbLine
 10
-236.7996822874404
 20
154.265965172951
 30
0.0
 11
-231.7996822874404
 21
154.265965172951
 31
0.0
  0
LINE
  5
316
330
71
100
AcDbEntity
  8
1
  6
Continuous
 62
     6
100
AcDbLine
 10
-231.7996822874404
 20
189.265965172951
 30
0.0
 11
-231.7996822874404
 21
154.265965172951
 31
0.0
  0
LINE
  5
317
330
71
100
AcDbEntity
  8
1
  6
Continuous
 62
     2
100
AcDbLine
 10
-236.7996822874404
 20
209.265965172951
 30
0.0
 11
-236.7996822874404
 21
154.265965172951
 31
0.0
  0
LINE
  5
318
330
71
100
AcDbEntity
  8
1
  6
Continuous
 62
     2
100
AcDbLine
 10
-236.7996822874404
 20
-0.73403482704907
 30
0.0
 11
-231.7996822874395
 21
-0.73403482704907
 31
0.0
  0
LINE
  5
319
330
71
100
AcDbEntity
  8
1
  6
Continuous
 62
     2
100
AcDbLine
 10
-88.29968228744133
 20
209.265965172951
 30
0.0
 11
-88.29968228744133
 21
200.0572733282497
 31
0.0
  0
LINE
  5
31A
330
71
100
AcDbEntity
  8
1
  6
Continuous
 62
     2
100
AcDbLine
 10
-88.29968228744133
 20
209.265965172951
 30
0.0
 11
-236.7996822874404
 21
209.265965172951
 31
0.0
  0
LINE
  5
31B
330
71
100
AcDbEntity
  8
1
  6
Continuous
 62
     2
100
AcDbLine
 10
60.20031771255765
 20
4.26596517295104
 30
0.0
 11
60.20031771255765
 21
54.26596517295116
 31
0.0
  0
LINE
  5
31C
330
71
100
AcDbEntity
  8
1
  6
Continuous
 62
     2
100
AcDbLine
 10
60.20031771255765
 20
154.265965172951
 30
0.0
 11
60.20031771255765
 21
209.265965172951
 31
0.0
  0
LINE
  5
31D
330
71
100
AcDbEntity
  8
1
  6
Continuous
 62
     6
100
AcDbLine
 10
55.20031771255785
 20
154.265965172951
 30
0.0
 11
55.20031771255765
 21
189.265965172951
 31
0.0
  0
LINE
  5
31E
330
71
100
AcDbEntity
  8
1
  6
Continuous
 62
     2
100
AcDbLine
 10
55.20031771255785
 20
154.265965172951
 30
0.0
 11
60.20031771255765
 21
154.265965172951
 31
0.0
  0
LINE
  5
31F
330
71
100
AcDbEntity
  8
1
  6
Continuous
 62
     2
100
AcDbLine
 10
60.20031771255765
 20
104.265965172951
 30
0.0
 11
60.20031771255765
 21
154.265965172951
 31
0.0
  0
LINE
  5
320
330
71
100
AcDbEntity
  8
1
  6
Continuous
 62
     6
100
AcDbLine
 10
55.20031771255906
 20
104.265965172951
 30
0.0
 11
55.20031771255785
 21
154.265965172951
 31
0.0
  0
LINE
  5
321
330
71
100
AcDbEntity
  8
1
  6
Continuous
 62
     2
100
AcDbLine
 10
55.20031771255906
 20
104.265965172951
 30
0.0
 11
60.20031771255765
 21
104.265965172951
 31
0.0
  0
LINE
  5
322
330
71
100
AcDbEntity
  8
1
  6
Continuous
 62
     2
100
AcDbLine
 10
60.20031771255765
 20
54.26596517295116
 30
0.0
 11
60.20031771255765
 21
104.265965172951
 31
0.0
  0
LINE
  5
323
330
71
100
AcDbEntity
  8
1
  6
Continuous
 62
     6
100
AcDbLine
 10
55.20031771255955
 20
54.26596517295116
 30
0.0
 11
55.20031771255906
 21
104.265965172951
 31
0.0
  0
LINE
  5
324
330
71
100
AcDbEntity
  8
1
  6
Continuous
 62
     2
100
AcDbLine
 10
55.20031771255955
 20
54.26596517295116
 30
0.0
 11
60.20031771255765
 21
54.26596517295116
 31
0.0
  0
LINE
  5
325
330
71
100
AcDbEntity
  8
1
  6
Continuous
 62
     6
100
AcDbLine
 10
55.20031771255765
 20
189.265965172951
 30
0.0
 11
-231.7996822874404
 21
189.265965172951
 31
0.0
  0
LINE
  5
326
330
71
100
AcDbEntity
  8
1
  6
Continuous
 62
     2
100
AcDbLine
 10
60.20031771255765
 20
209.265965172951
 30
0.0
 11
-88.29968228744133
 21
209.265965172951
 31
0.0
  0
LINE
  5
327
330
71
100
AcDbEntity
  8
1
  6
Continuous
 62
     6
100
AcDbLine
 10
55.20031771256035
 20
21.26596517295104
 30
0.0
 11
55.20031771255955
 21
54.26596517295116
 31
0.0
  0
LINE
  5
328
330
71
100
AcDbEntity
  8
1
  6
Continuous
 62
     2
100
AcDbLine
 10
55.20031771255866
 20
-0.73403482704907
 30
0.0
 11
11.70031771255864
 21
-0.73403482704907
 31
0.0
  0
LINE
  5
329
330
71
100
AcDbEntity
  8
1
  6
Continuous
 62
     2
100
AcDbLine
 10
60.20031771255765
 20
-0.73403482704907
 30
0.0
 11
55.20031771255866
 21
-0.73403482704907
 31
0.0
  0
LINE
  5
32A
330
71
100
AcDbEntity
  8
1
  6
Continuous
 62
     2
100
AcDbLine
 10
60.20031771255765
 20
-0.73403482704907
 30
0.0
 11
60.20031771255765
 21
4.26596517295104
 31
0.0
  0
LINE
  5
32B
330
71
100
AcDbEntity
  8
1
  6
Continuous
 62
     6
100
AcDbLine
 10
-74.34448681419136
 20
21.26596517295104
 30
0.0
 11
-37.94448681419144
 21
21.26596517295104
 31
0.0
  0
LINE
  5
32C
330
71
100
AcDbEntity
  8
1
  6
Continuous
 62
     2
100
AcDbLine
 10
55.20031771255866
 20
4.26596517295104
 30
0.0
 11
55.20031771255866
 21
-0.73403482704907
 31
0.0
  0
LINE
  5
32D
330
71
100
AcDbEntity
  8
1
  6
Continuous
 62
     2
100
AcDbLine
 10
55.20031771255866
 20
4.26596517295104
 30
0.0
 11
60.20031771255765
 21
4.26596517295104
 31
0.0
  0
LINE
  5
32E
330
71
100
AcDbEntity
  8
1
  6
Continuous
 62
     6
100
AcDbLine
 10
-38.29968228744136
 20
4.26596517295104
 30
0.0
 11
-56.14448681419134
 21
4.26596517295104
 31
0.0
  0
LINE
  5
32F
330
71
100
AcDbEntity
  8
1
  6
Continuous
 62
     6
100
AcDbLine
 10
11.70031771255864
 20
4.26596517295104
 30
0.0
 11
55.20031771255866
 21
4.26596517295104
 31
0.0
  0
LINE
  5
330
330
71
100
AcDbEntity
  8
1
  6
Continuous
 62
     6
100
AcDbLine
 10
-138.2996822874416
 20
4.26596517295104
 30
0.0
 11
-143.3444868141913
 21
4.26596517295104
 31
0.0
  0
LINE
  5
331
330
71
100
AcDbEntity
  8
1
  6
Continuous
 62
     6
100
AcDbLine
 10
-88.29968228744133
 20
4.26596517295104
 30
0.0
 11
-74.34448681419136
 21
4.26596517295093
 31
0.0
  0
LINE
  5
332
102
{ACAD_REACTORS
330
41C
330
41D
102
}
330
71
100
AcDbEntity
  8
0
  6
Continuous
 62
     2
100
AcDbLine
 10
-66.82986087204455
 20
16.33847992916316
 30
0.0
 11
-66.82986087204455
 21
16.94401521766994
 31
0.0
  0
LINE
  5
333
102
{ACAD_REACTORS
330
41C
330
41D
102
}
330
71
100
AcDbEntity
  8
0
  6
Continuous
 62
     2
100
AcDbLine
 10
-66.82986087204455
 20
13.53834532253185
 30
0.0
 11
-66.82986087204455
 21
14.12019672922693
 31
0.0
  0
LINE
  5
334
102
{ACAD_REACTORS
330
41E
330
41F
102
}
330
71
100
AcDbEntity
  8
0
  6
Continuous
 62
     2
100
AcDbLine
 10
-44.20037443656534
 20
13.82800939065484
 30
0.0
 11
-44.20037443656534
 21
11.55946517296735
 31
0.0
  0
LINE
  5
335
102
{ACAD_REACTORS
330
41E
330
41F
102
}
330
71
100
AcDbEntity
  8
0
  6
Continuous
 62
     2
100
AcDbLine
 10
-45.58142821555293
 20
14.61327469677795
 30
0.0
 11
-42.19648269692425
 21
14.61327469677843
 31
0.0
  0
LINE
  5
336
102
{ACAD_REACTORS
330
41E
330
41F
102
}
330
71
100
AcDbEntity
  8
0
  6
Continuous
 62
     2
100
AcDbLine
 10
-42.19648269692425
 20
13.82800939065484
 30
0.0
 11
-42.19648269692425
 21
14.61327469677843
 31
0.0
  0
LINE
  5
337
102
{ACAD_REACTORS
330
41E
330
41F
102
}
330
71
100
AcDbEntity
  8
0
  6
Continuous
 62
     2
100
AcDbLine
 10
-43.00758173439763
 20
13.82800939065484
 30
0.0
 11
-42.19648269692425
 21
13.82800939065484
 31
0.0
  0
LINE
  5
338
102
{ACAD_REACTORS
330
41E
330
41F
102
}
330
71
100
AcDbEntity
  8
0
  6
Continuous
 62
     2
100
AcDbLine
 10
-43.00758173439763
 20
11.55946517296735
 30
0.0
 11
-43.00758173439763
 21
13.82800939065484
 31
0.0
  0
LINE
  5
339
102
{ACAD_REACTORS
330
41E
330
41F
102
}
330
71
100
AcDbEntity
  8
0
  6
Continuous
 62
     2
100
AcDbLine
 10
-44.20037443656534
 20
11.55946517296735
 30
0.0
 11
-43.00758173439763
 21
11.55946517296735
 31
0.0
  0
LINE
  5
33A
102
{ACAD_REACTORS
330
414
330
415
102
}
330
71
100
AcDbEntity
  8
0
  6
Continuous
 62
     2
100
AcDbLine
 10
-44.89696537462984
 20
17.97246517295284
 30
0.0
 11
-46.29968959237914
 21
17.97246517295284
 31
0.0
  0
LINE
  5
33B
102
{ACAD_REACTORS
330
414
330
415
102
}
330
71
100
AcDbEntity
  8
0
  6
Continuous
 62
     2
100
AcDbLine
 10
-44.89696537462984
 20
17.97246517295284
 30
0.0
 11
-44.29579785273805
 21
17.29264185139735
 31
0.0
  0
LINE
  5
33C
102
{ACAD_REACTORS
330
414
330
415
102
}
330
71
100
AcDbEntity
  8
0
  6
Continuous
 62
     2
100
AcDbLine
 10
-44.29579785273805
 20
17.29264185139735
 30
0.0
 11
-43.69463033084526
 21
17.97246517295284
 31
0.0
  0
LINE
  5
33D
102
{ACAD_REACTORS
330
414
330
415
102
}
330
71
100
AcDbEntity
  8
0
  6
Continuous
 62
     2
100
AcDbLine
 10
-43.59443574386455
 20
16.49951464291664
 30
0.0
 11
-42.29190611309804
 21
17.97246517295284
 31
0.0
  0
LINE
  5
33E
102
{ACAD_REACTORS
330
414
330
415
102
}
330
71
100
AcDbEntity
  8
0
  6
Continuous
 62
     2
100
AcDbLine
 10
-43.59443574386455
 20
16.49951464291664
 30
0.0
 11
-42.19648269692425
 21
14.91865564914164
 31
0.0
  0
LINE
  5
33F
102
{ACAD_REACTORS
330
414
330
415
102
}
330
71
100
AcDbEntity
  8
0
  6
Continuous
 62
     2
100
AcDbLine
 10
-43.59920691467255
 20
14.91865564914164
 30
0.0
 11
-42.19648269692425
 21
14.91865564914164
 31
0.0
  0
LINE
  5
340
102
{ACAD_REACTORS
330
414
330
415
102
}
330
71
100
AcDbEntity
  8
0
  6
Continuous
 62
     2
100
AcDbLine
 10
-44.29579785273805
 20
15.70638743443536
 30
0.0
 11
-43.59920691467255
 21
14.91865564914164
 31
0.0
  0
LINE
  5
341
102
{ACAD_REACTORS
330
412
330
413
102
}
330
71
100
AcDbEntity
  8
0
  6
Continuous
 62
     2
100
AcDbLine
 10
-47.75489668902173
 20
17.97246517295284
 30
0.0
 11
-46.51439227876884
 21
17.97246517295284
 31
0.0
  0
LINE
  5
342
102
{ACAD_REACTORS
330
412
330
413
102
}
330
71
100
AcDbEntity
  8
0
  6
Continuous
 62
     2
100
AcDbLine
 10
-46.51439227876884
 20
17.97246517295284
 30
0.0
 11
-46.51439227876884
 21
14.91865564914164
 31
0.0
  0
LINE
  5
343
102
{ACAD_REACTORS
330
412
330
413
102
}
330
71
100
AcDbEntity
  8
0
  6
Continuous
 62
     2
100
AcDbLine
 10
-47.75489668902173
 20
14.91865564914164
 30
0.0
 11
-47.75489668902173
 21
17.97246517295284
 31
0.0
  0
LINE
  5
344
102
{ACAD_REACTORS
330
410
330
411
102
}
330
71
100
AcDbEntity
  8
0
  6
Continuous
 62
     2
100
AcDbLine
 10
-49.22320677155935
 20
12.78098898249183
 30
0.0
 11
-48.92304153436695
 21
13.54880394847854
 31
0.0
  0
LINE
  5
345
102
{ACAD_REACTORS
330
410
330
411
102
}
330
71
100
AcDbEntity
  8
0
  6
Continuous
 62
     2
100
AcDbLine
 10
-49.70074237618016
 20
11.55946517296735
 30
0.0
 11
-49.48926232270435
 21
12.10042571718523
 31
0.0
  0
LINE
  5
346
102
{ACAD_REACTORS
330
410
330
411
102
}
330
71
100
AcDbEntity
  8
0
  6
Continuous
 62
     2
100
AcDbLine
 10
-49.54329373949383
 20
14.61327469677843
 30
0.0
 11
-50.94124678643314
 21
11.55946517296735
 31
0.0
  0
LINE
  5
347
102
{ACAD_REACTORS
330
410
330
411
102
}
330
71
100
AcDbEntity
  8
0
  6
Continuous
 62
     2
100
AcDbLine
 10
-46.90483628230084
 20
11.55946517296735
 30
0.0
 11
-48.14534069255475
 21
11.55946517296735
 31
0.0
  0
LINE
  5
348
102
{ACAD_REACTORS
330
410
330
411
102
}
330
71
100
AcDbEntity
  8
0
  6
Continuous
 62
     2
100
AcDbLine
 10
-49.48926232270435
 20
12.10042571718523
 30
0.0
 11
-48.35682074603054
 21
12.10042571718523
 31
0.0
  0
LINE
  5
349
102
{ACAD_REACTORS
330
40E
330
40F
102
}
330
71
100
AcDbEntity
  8
0
  6
Continuous
 62
     2
100
AcDbLine
 10
-53.09875892561536
 20
13.82800939065484
 30
0.0
 11
-52.28765988814075
 21
13.82800939065484
 31
0.0
  0
LINE
  5
34A
102
{ACAD_REACTORS
330
40E
330
40F
102
}
330
71
100
AcDbEntity
  8
0
  6
Continuous
 62
     2
100
AcDbLine
 10
-50.28376814850174
 20
14.61327469677843
 30
0.0
 11
-53.09875892561536
 21
14.61327469677843
 31
0.0
  0
LINE
  5
34B
102
{ACAD_REACTORS
330
40E
330
40F
102
}
330
71
100
AcDbEntity
  8
0
  6
Continuous
 62
     2
100
AcDbLine
 10
-50.28376814850174
 20
13.82800939065484
 30
0.0
 11
-50.28376814850174
 21
14.61327469677843
 31
0.0
  0
LINE
  5
34C
102
{ACAD_REACTORS
330
40E
330
40F
102
}
330
71
100
AcDbEntity
  8
0
  6
Continuous
 62
     2
100
AcDbLine
 10
-51.09486718597424
 20
13.82800939065484
 30
0.0
 11
-50.28376814850174
 21
13.82800939065484
 31
0.0
  0
LINE
  5
34D
102
{ACAD_REACTORS
330
40E
330
40F
102
}
330
71
100
AcDbEntity
  8
0
  6
Continuous
 62
     2
100
AcDbLine
 10
-51.09486718597424
 20
11.55946517296735
 30
0.0
 11
-51.09486718597424
 21
13.82800939065484
 31
0.0
  0
LINE
  5
34E
102
{ACAD_REACTORS
330
40C
330
40D
102
}
330
71
100
AcDbEntity
  8
0
  6
Continuous
 62
     2
100
AcDbLine
 10
-50.42675234187624
 20
14.91865564914164
 30
0.0
 11
-50.42675234187624
 21
16.22743115934634
 31
0.0
  0
LINE
  5
34F
102
{ACAD_REACTORS
330
40C
330
40D
102
}
330
71
100
AcDbEntity
  8
0
  6
Continuous
 62
     2
100
AcDbLine
 10
-51.61954504404275
 20
17.97246517295284
 30
0.0
 11
-51.61954504404275
 21
14.91865564914164
 31
0.0
  0
LINE
  5
350
102
{ACAD_REACTORS
330
40C
330
40D
102
}
330
71
100
AcDbEntity
  8
0
  6
Continuous
 62
     2
100
AcDbLine
 10
-50.42675234187624
 20
17.97246517295284
 30
0.0
 11
-51.61954504404275
 21
17.97246517295284
 31
0.0
  0
LINE
  5
351
102
{ACAD_REACTORS
330
40C
330
40D
102
}
330
71
100
AcDbEntity
  8
0
  6
Continuous
 62
     2
100
AcDbLine
 10
-49.18624793162223
 20
17.97246517295284
 30
0.0
 11
-49.18624793162223
 21
16.66368966274766
 31
0.0
  0
LINE
  5
352
102
{ACAD_REACTORS
330
40A
330
40B
102
}
330
71
100
AcDbEntity
  8
0
  6
Continuous
 62
     2
100
AcDbLine
 10
-56.86798386446245
 20
14.61327469677843
 30
0.0
 11
-56.86798386446245
 21
11.55946517296735
 31
0.0
  0
LINE
  5
353
102
{ACAD_REACTORS
330
40A
330
40B
102
}
330
71
100
AcDbEntity
  8
0
  6
Continuous
 62
     2
100
AcDbLine
 10
-55.67519116229485
 20
14.61327469677843
 30
0.0
 11
-56.86798386446245
 21
14.61327469677843
 31
0.0
  0
LINE
  5
354
102
{ACAD_REACTORS
330
40A
330
40B
102
}
330
71
100
AcDbEntity
  8
0
  6
Continuous
 62
     2
100
AcDbLine
 10
-54.43468675204196
 20
11.55946517296735
 30
0.0
 11
-53.24189404987556
 21
11.55946517296735
 31
0.0
  0
LINE
  5
355
102
{ACAD_REACTORS
330
40A
330
40B
102
}
330
71
100
AcDbEntity
  8
0
  6
Continuous
 62
     2
100
AcDbLine
 10
-56.86798386446245
 20
11.55946517296735
 30
0.0
 11
-55.67519116229485
 21
11.55946517296735
 31
0.0
  0
LINE
  5
356
102
{ACAD_REACTORS
330
41A
330
41B
102
}
330
71
100
AcDbEntity
  8
0
  6
Continuous
 62
     2
100
AcDbLine
 10
-53.19403141090334
 20
16.79456721376815
 30
0.0
 11
-53.19403141090334
 21
17.27445156750986
 31
0.0
  0
LINE
  5
357
102
{ACAD_REACTORS
330
41A
330
41B
102
}
330
71
100
AcDbEntity
  8
0
  6
Continuous
 62
     2
100
AcDbLine
 10
-51.85810358447566
 20
16.79456721376815
 30
0.0
 11
-53.19403141090334
 21
16.79456721376815
 31
0.0
  0
LINE
  5
358
102
{ACAD_REACTORS
330
41A
330
41B
102
}
330
71
100
AcDbEntity
  8
0
  6
Continuous
 62
     2
100
AcDbLine
 10
-51.85810358447566
 20
16.09655360832585
 30
0.0
 11
-51.85810358447566
 21
16.79456721376815
 31
0.0
  0
LINE
  5
359
102
{ACAD_REACTORS
330
41A
330
41B
102
}
330
71
100
AcDbEntity
  8
0
  6
Continuous
 62
     2
100
AcDbLine
 10
-53.19403141090334
 20
16.09655360832585
 30
0.0
 11
-51.85810358447566
 21
16.09655360832585
 31
0.0
  0
LINE
  5
35A
102
{ACAD_REACTORS
330
408
330
409
102
}
330
71
100
AcDbEntity
  8
0
  6
Continuous
 62
     2
100
AcDbLine
 10
-56.67698610123026
 20
17.97246517295284
 30
0.0
 11
-56.67698610123026
 21
14.91865564914164
 31
0.0
  0
LINE
  5
35B
102
{ACAD_REACTORS
330
408
330
409
102
}
330
71
100
AcDbEntity
  8
0
  6
Continuous
 62
     2
100
AcDbLine
 10
-56.67698610123026
 20
14.91865564914164
 30
0.0
 11
-57.86977880339666
 21
14.91865564914164
 31
0.0
  0
LINE
  5
35C
102
{ACAD_REACTORS
330
408
330
409
102
}
330
71
100
AcDbEntity
  8
0
  6
Continuous
 62
     2
100
AcDbLine
 10
-57.86977880339666
 20
14.91865564914164
 30
0.0
 11
-57.86977880339666
 21
16.05292775798546
 31
0.0
  0
LINE
  5
35D
102
{ACAD_REACTORS
330
408
330
409
102
}
330
71
100
AcDbEntity
  8
0
  6
Continuous
 62
     2
100
AcDbLine
 10
-58.91943638130414
 20
14.91865564914164
 30
0.0
 11
-60.11222908347074
 21
14.91865564914164
 31
0.0
  0
LINE
  5
35E
102
{ACAD_REACTORS
330
408
330
409
102
}
330
71
100
AcDbEntity
  8
0
  6
Continuous
 62
     2
100
AcDbLine
 10
-60.11222908347074
 20
17.97246517295284
 30
0.0
 11
-58.91943638130414
 21
17.97246517295284
 31
0.0
  0
LINE
  5
35F
102
{ACAD_REACTORS
330
408
330
409
102
}
330
71
100
AcDbEntity
  8
0
  6
Continuous
 62
     2
100
AcDbLine
 10
-58.91943638130414
 20
17.97246517295284
 30
0.0
 11
-58.91943638130414
 21
16.90363183961824
 31
0.0
  0
LINE
  5
360
102
{ACAD_REACTORS
330
408
330
409
102
}
330
71
100
AcDbEntity
  8
0
  6
Continuous
 62
     2
100
AcDbLine
 10
-58.91943638130414
 20
16.90363183961824
 30
0.0
 11
-57.86977880339666
 21
16.90363183961824
 31
0.0
  0
LINE
  5
361
102
{ACAD_REACTORS
330
416
330
417
102
}
330
71
100
AcDbEntity
  8
0
  6
Continuous
 62
     2
100
AcDbLine
 10
-62.06840911502434
 20
17.30935932751274
 30
0.0
 11
-61.75111405348244
 21
17.30935932751274
 31
0.0
  0
LINE
  5
362
102
{ACAD_REACTORS
330
416
330
417
102
}
330
71
100
AcDbEntity
  8
0
  6
Continuous
 62
     2
100
AcDbLine
 10
-62.06840911502434
 20
16.60363167817053
 30
0.0
 11
-61.75111405348244
 21
16.60363167817053
 31
0.0
  0
LINE
  5
363
102
{ACAD_REACTORS
330
416
330
417
102
}
330
71
100
AcDbEntity
  8
0
  6
Continuous
 62
     2
100
AcDbLine
 10
-63.30891352527846
 20
17.97246517295284
 30
0.0
 11
-63.30891352527846
 21
14.91865564914164
 31
0.0
  0
LINE
  5
364
102
{ACAD_REACTORS
330
416
330
417
102
}
330
71
100
AcDbEntity
  8
0
  6
Continuous
 62
     2
100
AcDbLine
 10
-63.30891352527846
 20
17.97246517295284
 30
0.0
 11
-61.30964152724405
 21
17.97246517295284
 31
0.0
  0
LINE
  5
365
102
{ACAD_REACTORS
330
416
330
417
102
}
330
71
100
AcDbEntity
  8
0
  6
Continuous
 62
     2
100
AcDbLine
 10
-62.06840911502434
 20
15.86173389028545
 30
0.0
 11
-61.30964152724405
 21
15.86173389028545
 31
0.0
  0
LINE
  5
366
102
{ACAD_REACTORS
330
41C
330
41D
102
}
330
71
100
AcDbEntity
  8
0
  6
Continuous
 62
     2
100
AcDbLine
 10
-69.40540955857514
 20
16.94419269431805
 30
0.0
 11
-69.40540955857514
 21
12.58773765160095
 31
0.0
  0
LINE
  5
367
102
{ACAD_REACTORS
330
41C
330
41D
102
}
330
71
100
AcDbEntity
  8
0
  6
Continuous
 62
     2
100
AcDbLine
 10
-69.08969263549946
 20
17.25990961739424
 30
0.0
 11
-67.61385937448983
 21
17.25990961739424
 31
0.0
  0
LINE
  5
368
102
{ACAD_REACTORS
330
41C
330
41D
102
}
330
71
100
AcDbEntity
  8
0
  6
Continuous
 62
     2
100
AcDbLine
 10
-67.29814245141324
 20
16.34016807525754
 30
0.0
 11
-67.29814245141324
 21
16.94419269431805
 31
0.0
  0
LINE
  5
369
102
{ACAD_REACTORS
330
41C
330
41D
102
}
330
71
100
AcDbEntity
  8
0
  6
Continuous
 62
     2
100
AcDbLine
 10
-67.29814245141324
 20
12.58773765160095
 30
0.0
 11
-67.29814245141324
 21
14.11850858313255
 31
0.0
  0
LINE
  5
36A
102
{ACAD_REACTORS
330
41C
330
41D
102
}
330
71
100
AcDbEntity
  8
0
  6
Continuous
 62
     2
100
AcDbLine
 10
-64.21027522152914
 20
11.55946517296735
 30
0.0
 11
-69.68358731224595
 21
11.55946517296735
 31
0.0
  0
LINE
  5
36B
102
{ACAD_REACTORS
330
41C
330
41D
102
}
330
71
100
AcDbEntity
  8
0
  6
Continuous
 62
     2
100
AcDbLine
 10
-63.78603060614526
 20
17.54822055755085
 30
0.0
 11
-63.78603060614526
 21
11.98370978835064
 31
0.0
  0
LINE
  5
36C
102
{ACAD_REACTORS
330
41C
330
41D
102
}
330
71
100
AcDbEntity
  8
0
  6
Continuous
 62
     2
100
AcDbLine
 10
-69.68358731224595
 20
17.97246517293465
 30
0.0
 11
-64.21027522152914
 21
17.97246517293465
 31
0.0
  0
LINE
  5
36D
102
{ACAD_REACTORS
330
41C
330
41D
102
}
330
71
100
AcDbEntity
  8
0
  6
Continuous
 62
     2
100
AcDbLine
 10
-70.10783192762875
 20
17.54822055755085
 30
0.0
 11
-70.10783192762875
 21
11.98370978835064
 31
0.0
  0
LINE
  5
36E
102
{ACAD_REACTORS
330
41C
330
41D
102
}
330
71
100
AcDbEntity
  8
0
  6
Continuous
 62
     2
100
AcDbLine
 10
-67.61385937448983
 20
12.27202072852424
 30
0.0
 11
-69.08969263549946
 21
12.27202072852424
 31
0.0
  0
LINE
  5
36F
102
{ACAD_REACTORS
330
416
330
417
102
}
330
71
100
AcDbEntity
  8
0
  6
Continuous
 62
     2
100
AcDbLine
 10
-62.06840911502434
 20
14.91865564914164
 30
0.0
 11
-62.06840911502434
 21
15.86173389028545
 31
0.0
  0
LINE
  5
370
102
{ACAD_REACTORS
330
416
330
417
102
}
330
71
100
AcDbEntity
  8
0
  6
Continuous
 62
     2
100
AcDbLine
 10
-63.30891352527846
 20
14.91865564914164
 30
0.0
 11
-62.06840911502434
 21
14.91865564914164
 31
0.0
  0
LINE
  5
371
102
{ACAD_REACTORS
330
416
330
417
102
}
330
71
100
AcDbEntity
  8
0
  6
Continuous
 62
     2
100
AcDbLine
 10
-62.06840911502434
 20
16.60363167817053
 30
0.0
 11
-62.06840911502434
 21
17.30935932751274
 31
0.0
  0
LINE
  5
372
102
{ACAD_REACTORS
330
408
330
409
102
}
330
71
100
AcDbEntity
  8
0
  6
Continuous
 62
     2
100
AcDbLine
 10
-60.11222908347074
 20
17.97246517295284
 30
0.0
 11
-60.11222908347074
 21
14.91865564914164
 31
0.0
  0
LINE
  5
373
102
{ACAD_REACTORS
330
408
330
409
102
}
330
71
100
AcDbEntity
  8
0
  6
Continuous
 62
     2
100
AcDbLine
 10
-58.91943638130414
 20
16.05292775798546
 30
0.0
 11
-58.91943638130414
 21
14.91865564914164
 31
0.0
  0
LINE
  5
374
102
{ACAD_REACTORS
330
408
330
409
102
}
330
71
100
AcDbEntity
  8
0
  6
Continuous
 62
     2
100
AcDbLine
 10
-57.86977880339666
 20
16.05292775798546
 30
0.0
 11
-58.91943638130414
 21
16.05292775798546
 31
0.0
  0
LINE
  5
375
102
{ACAD_REACTORS
330
408
330
409
102
}
330
71
100
AcDbEntity
  8
0
  6
Continuous
 62
     2
100
AcDbLine
 10
-57.86977880339666
 20
17.97246517295284
 30
0.0
 11
-56.67698610123026
 21
17.97246517295284
 31
0.0
  0
LINE
  5
376
102
{ACAD_REACTORS
330
408
330
409
102
}
330
71
100
AcDbEntity
  8
0
  6
Continuous
 62
     2
100
AcDbLine
 10
-57.86977880339666
 20
16.90363183961824
 30
0.0
 11
-57.86977880339666
 21
17.97246517295284
 31
0.0
  0
LINE
  5
377
102
{ACAD_REACTORS
330
41A
330
41B
102
}
330
71
100
AcDbEntity
  8
0
  6
Continuous
 62
     2
100
AcDbLine
 10
-51.85810358447566
 20
17.27445156750986
 30
0.0
 11
-51.85810358447566
 21
17.97246517295284
 31
0.0
  0
LINE
  5
378
102
{ACAD_REACTORS
330
41A
330
41B
102
}
330
71
100
AcDbEntity
  8
0
  6
Continuous
 62
     2
100
AcDbLine
 10
-55.00842330825665
 20
17.97246517295284
 30
0.0
 11
-51.85810358447566
 21
17.97246517295284
 31
0.0
  0
LINE
  5
379
102
{ACAD_REACTORS
330
41A
330
41B
102
}
330
71
100
AcDbEntity
  8
0
  6
Continuous
 62
     2
100
AcDbLine
 10
-55.00842330825665
 20
14.91865564914164
 30
0.0
 11
-51.85810358447566
 21
14.91865564914164
 31
0.0
  0
LINE
  5
37A
102
{ACAD_REACTORS
330
41A
330
41B
102
}
330
71
100
AcDbEntity
  8
0
  6
Continuous
 62
     2
100
AcDbLine
 10
-51.85810358447566
 20
14.91865564914164
 30
0.0
 11
-51.85810358447566
 21
15.61666925458414
 31
0.0
  0
LINE
  5
37B
102
{ACAD_REACTORS
330
41A
330
41B
102
}
330
71
100
AcDbEntity
  8
0
  6
Continuous
 62
     2
100
AcDbLine
 10
-51.85810358447566
 20
15.61666925458414
 30
0.0
 11
-53.19403141090334
 21
15.61666925458414
 31
0.0
  0
LINE
  5
37C
102
{ACAD_REACTORS
330
41A
330
41B
102
}
330
71
100
AcDbEntity
  8
0
  6
Continuous
 62
     2
100
AcDbLine
 10
-53.19403141090334
 20
15.61666925458414
 30
0.0
 11
-53.19403141090334
 21
16.09655360832585
 31
0.0
  0
LINE
  5
37D
102
{ACAD_REACTORS
330
41A
330
41B
102
}
330
71
100
AcDbEntity
  8
0
  6
Continuous
 62
     2
100
AcDbLine
 10
-53.19403141090334
 20
17.27445156750986
 30
0.0
 11
-51.85810358447566
 21
17.27445156750986
 31
0.0
  0
LINE
  5
37E
102
{ACAD_REACTORS
330
40A
330
40B
102
}
330
71
100
AcDbEntity
  8
0
  6
Continuous
 62
     2
100
AcDbLine
 10
-55.67519116229485
 20
11.55946517296735
 30
0.0
 11
-55.67519116229485
 21
12.86824068317193
 31
0.0
  0
LINE
  5
37F
102
{ACAD_REACTORS
330
40A
330
40B
102
}
330
71
100
AcDbEntity
  8
0
  6
Continuous
 62
     2
100
AcDbLine
 10
-55.67519116229485
 20
12.86824068317193
 30
0.0
 11
-54.43468675204196
 21
11.55946517296735
 31
0.0
  0
LINE
  5
380
102
{ACAD_REACTORS
330
40A
330
40B
102
}
330
71
100
AcDbEntity
  8
0
  6
Continuous
 62
     2
100
AcDbLine
 10
-53.24189404987556
 20
11.55946517296735
 30
0.0
 11
-53.24189404987556
 21
14.61327469677843
 31
0.0
  0
LINE
  5
381
102
{ACAD_REACTORS
330
40A
330
40B
102
}
330
71
100
AcDbEntity
  8
0
  6
Continuous
 62
     2
100
AcDbLine
 10
-53.24189404987556
 20
14.61327469677843
 30
0.0
 11
-54.43468675204196
 21
14.61327469677843
 31
0.0
  0
LINE
  5
382
102
{ACAD_REACTORS
330
40A
330
40B
102
}
330
71
100
AcDbEntity
  8
0
  6
Continuous
 62
     2
100
AcDbLine
 10
-54.43468675204196
 20
14.61327469677843
 30
0.0
 11
-54.43468675204196
 21
13.30449918657334
 31
0.0
  0
LINE
  5
383
102
{ACAD_REACTORS
330
40A
330
40B
102
}
330
71
100
AcDbEntity
  8
0
  6
Continuous
 62
     2
100
AcDbLine
 10
-54.43468675204196
 20
13.30449918657334
 30
0.0
 11
-55.67519116229485
 21
14.61327469677843
 31
0.0
  0
LINE
  5
384
102
{ACAD_REACTORS
330
40C
330
40D
102
}
330
71
100
AcDbEntity
  8
0
  6
Continuous
 62
     2
100
AcDbLine
 10
-50.42675234187624
 20
16.22743115934634
 30
0.0
 11
-49.18624793162223
 21
14.91865564914164
 31
0.0
  0
LINE
  5
385
102
{ACAD_REACTORS
330
40C
330
40D
102
}
330
71
100
AcDbEntity
  8
0
  6
Continuous
 62
     2
100
AcDbLine
 10
-49.18624793162223
 20
14.91865564914164
 30
0.0
 11
-47.99345522945563
 21
14.91865564914164
 31
0.0
  0
LINE
  5
386
102
{ACAD_REACTORS
330
40C
330
40D
102
}
330
71
100
AcDbEntity
  8
0
  6
Continuous
 62
     2
100
AcDbLine
 10
-47.99345522945563
 20
14.91865564914164
 30
0.0
 11
-47.99345522945563
 21
17.97246517295284
 31
0.0
  0
LINE
  5
387
102
{ACAD_REACTORS
330
40C
330
40D
102
}
330
71
100
AcDbEntity
  8
0
  6
Continuous
 62
     2
100
AcDbLine
 10
-47.99345522945563
 20
17.97246517295284
 30
0.0
 11
-49.18624793162223
 21
17.97246517295284
 31
0.0
  0
LINE
  5
388
102
{ACAD_REACTORS
330
40C
330
40D
102
}
330
71
100
AcDbEntity
  8
0
  6
Continuous
 62
     2
100
AcDbLine
 10
-49.18624793162223
 20
16.66368966274766
 30
0.0
 11
-50.42675234187624
 21
17.97246517295284
 31
0.0
  0
LINE
  5
389
102
{ACAD_REACTORS
330
40C
330
40D
102
}
330
71
100
AcDbEntity
  8
0
  6
Continuous
 62
     2
100
AcDbLine
 10
-51.61954504404275
 20
14.91865564914164
 30
0.0
 11
-50.42675234187624
 21
14.91865564914164
 31
0.0
  0
LINE
  5
38A
102
{ACAD_REACTORS
330
40E
330
40F
102
}
330
71
100
AcDbEntity
  8
0
  6
Continuous
 62
     2
100
AcDbLine
 10
-53.09875892561536
 20
14.61327469677843
 30
0.0
 11
-53.09875892561536
 21
13.82800939065484
 31
0.0
  0
LINE
  5
38B
102
{ACAD_REACTORS
330
40E
330
40F
102
}
330
71
100
AcDbEntity
  8
0
  6
Continuous
 62
     2
100
AcDbLine
 10
-52.28765988814075
 20
13.82800939065484
 30
0.0
 11
-52.28765988814075
 21
11.55946517296735
 31
0.0
  0
LINE
  5
38C
102
{ACAD_REACTORS
330
40E
330
40F
102
}
330
71
100
AcDbEntity
  8
0
  6
Continuous
 62
     2
100
AcDbLine
 10
-52.28765988814075
 20
11.55946517296735
 30
0.0
 11
-51.09486718597424
 21
11.55946517296735
 31
0.0
  0
LINE
  5
38D
102
{ACAD_REACTORS
330
410
330
411
102
}
330
71
100
AcDbEntity
  8
0
  6
Continuous
 62
     2
100
AcDbLine
 10
-48.14534069255475
 20
11.55946517296735
 30
0.0
 11
-48.35682074603054
 21
12.10042571718523
 31
0.0
  0
LINE
  5
38E
102
{ACAD_REACTORS
330
410
330
411
102
}
330
71
100
AcDbEntity
  8
0
  6
Continuous
 62
     2
100
AcDbLine
 10
-48.30278932924114
 20
14.61327469677843
 30
0.0
 11
-46.90483628230084
 21
11.55946517296735
 31
0.0
  0
LINE
  5
38F
102
{ACAD_REACTORS
330
410
330
411
102
}
330
71
100
AcDbEntity
  8
0
  6
Continuous
 62
     2
100
AcDbLine
 10
-49.54329373949383
 20
14.61327469677843
 30
0.0
 11
-48.30278932924114
 21
14.61327469677843
 31
0.0
  0
LINE
  5
390
102
{ACAD_REACTORS
330
410
330
411
102
}
330
71
100
AcDbEntity
  8
0
  6
Continuous
 62
     2
100
AcDbLine
 10
-50.94124678643314
 20
11.55946517296735
 30
0.0
 11
-49.70074237618016
 21
11.55946517296735
 31
0.0
  0
LINE
  5
391
102
{ACAD_REACTORS
330
410
330
411
102
}
330
71
100
AcDbEntity
  8
0
  6
Continuous
 62
     2
100
AcDbLine
 10
-49.22320677155935
 20
12.78098898249183
 30
0.0
 11
-48.62287629717685
 21
12.78098898249183
 31
0.0
  0
LINE
  5
392
102
{ACAD_REACTORS
330
410
330
411
102
}
330
71
100
AcDbEntity
  8
0
  6
Continuous
 62
     2
100
AcDbLine
 10
-48.62287629717685
 20
12.78098898249183
 30
0.0
 11
-48.92304153436695
 21
13.54880394847854
 31
0.0
  0
LINE
  5
393
102
{ACAD_REACTORS
330
412
330
413
102
}
330
71
100
AcDbEntity
  8
0
  6
Continuous
 62
     2
100
AcDbLine
 10
-46.51439227876884
 20
14.91865564914164
 30
0.0
 11
-47.75489668902173
 21
14.91865564914164
 31
0.0
  0
LINE
  5
394
102
{ACAD_REACTORS
330
414
330
415
102
}
330
71
100
AcDbEntity
  8
0
  6
Continuous
 62
     2
100
AcDbLine
 10
-44.99238879080374
 20
14.91865564914164
 30
0.0
 11
-46.39511300855196
 21
14.91865564914164
 31
0.0
  0
LINE
  5
395
102
{ACAD_REACTORS
330
414
330
415
102
}
330
71
100
AcDbEntity
  8
0
  6
Continuous
 62
     2
100
AcDbLine
 10
-44.99238879080374
 20
14.91865564914164
 30
0.0
 11
-44.29579785273805
 21
15.70638743443536
 31
0.0
  0
LINE
  5
396
102
{ACAD_REACTORS
330
414
330
415
102
}
330
71
100
AcDbEntity
  8
0
  6
Continuous
 62
     2
100
AcDbLine
 10
-43.69463033084526
 20
17.97246517295284
 30
0.0
 11
-42.29190611309804
 21
17.97246517295284
 31
0.0
  0
LINE
  5
397
102
{ACAD_REACTORS
330
414
330
415
102
}
330
71
100
AcDbEntity
  8
0
  6
Continuous
 62
     2
100
AcDbLine
 10
-46.29968959237914
 20
17.97246517295284
 30
0.0
 11
-44.99715996161166
 21
16.49951464291664
 31
0.0
  0
LINE
  5
398
102
{ACAD_REACTORS
330
414
330
415
102
}
330
71
100
AcDbEntity
  8
0
  6
Continuous
 62
     2
100
AcDbLine
 10
-46.39511300855196
 20
14.91865564914164
 30
0.0
 11
-44.99715996161166
 21
16.49951464291664
 31
0.0
  0
LINE
  5
399
102
{ACAD_REACTORS
330
41E
330
41F
102
}
330
71
100
AcDbEntity
  8
0
  6
Continuous
 62
     2
100
AcDbLine
 10
-44.53435639317203
 20
12.60648558113095
 30
0.0
 11
-44.53435639317203
 21
11.73396857432763
 31
0.0
  0
LINE
  5
39A
102
{ACAD_REACTORS
330
41E
330
41F
102
}
330
71
100
AcDbEntity
  8
0
  6
Continuous
 62
     2
100
AcDbLine
 10
-45.30401373613344
 20
13.82800939065484
 30
0.0
 11
-44.20037443656534
 21
13.82800939065484
 31
0.0
  0
LINE
  5
39B
102
{ACAD_REACTORS
330
420
330
421
102
}
330
71
100
AcDbEntity
  8
0
  6
Continuous
 62
     2
100
AcDbLine
 10
-60.63705787242395
 20
12.60648558113144
 30
0.0
 11
-60.63705787242395
 21
11.73396857432823
 31
0.0
  0
LINE
  5
39C
102
{ACAD_REACTORS
330
420
330
421
102
}
330
71
100
AcDbEntity
  8
0
  6
Continuous
 62
     2
100
AcDbLine
 10
-60.63705787242395
 20
13.56625428861435
 30
0.0
 11
-60.63705787242395
 21
14.43877129541764
 31
0.0
  0
LINE
  5
39D
330
71
100
AcDbEntity
  8
1
  6
Continuous
 62
     7
100
AcDbLine
 10
55.20031771255995
 20
12.76596517295104
 30
0.0
 11
-37.94448681419144
 21
12.76596517295104
 31
0.0
  0
LINE
  5
39E
330
71
100
AcDbEntity
  8
1
  6
Continuous
 62
     6
100
AcDbLine
 10
-143.3444868141913
 20
4.26596517295104
 30
0.0
 11
-188.2996822874413
 21
4.26596517295104
 31
0.0
  0
LINE
  5
39F
330
71
100
AcDbEntity
  8
1
  6
Continuous
 62
     7
100
AcDbLine
 10
46.28190943088114
 20
29.76596517295104
 30
0.0
 11
46.28190943088114
 21
21.26596517295104
 31
0.0
  0
LINE
  5
3A0
330
71
100
AcDbEntity
  8
1
  6
Continuous
 62
     7
100
AcDbLine
 10
19.78190943088154
 20
29.76596517295104
 30
0.0
 11
19.78190943088154
 21
21.26596517295104
 31
0.0
  0
LINE
  5
3A1
330
71
100
AcDbEntity
  8
1
  6
Continuous
 62
     7
100
AcDbLine
 10
-37.94448681419144
 20
21.26596517295104
 30
0.0
 11
-37.94448681419144
 21
29.76596517295104
 31
0.0
  0
LINE
  5
3A2
330
71
100
AcDbEntity
  8
1
  6
Continuous
 62
     7
100
AcDbLine
 10
-74.34448681419136
 20
21.26596517295104
 30
0.0
 11
-74.34448681419136
 21
29.76596517295104
 31
0.0
  0
LINE
  5
3A3
330
71
100
AcDbEntity
  8
1
  6
Continuous
 62
     6
100
AcDbLine
 10
-37.94448681419144
 20
21.26596517295104
 30
0.0
 11
55.20031771256035
 21
21.26596517295104
 31
0.0
  0
LINE
  5
3A4
330
71
100
AcDbEntity
  8
1
  6
Continuous
 62
     7
100
AcDbLine
 10
-10.04448681419135
 20
12.76596517295096
 30
0.0
 11
-10.04448681419135
 21
21.26596517295104
 31
0.0
  0
LINE
  5
3A5
330
71
100
AcDbEntity
  8
1
  6
PHANTOM
 62
     2
100
AcDbLine
 10
-58.85783192762875
 20
25.39096517295096
 30
0.0
 11
-64.35783192762875
 21
25.39096517295096
 31
0.0
  0
LINE
  5
3A6
330
71
100
AcDbEntity
  8
1
  6
PHANTOM
 62
     2
100
AcDbLine
 10
-61.60783192762875
 20
28.14096517295096
 30
0.0
 11
-61.60783192762875
 21
22.64096517295096
 31
0.0
  0
LINE
  5
3A7
330
71
100
AcDbEntity
  8
1
  6
DOT_CENTER
 62
     2
100
AcDbLine
 10
-70.35783192762875
 20
25.39096517295096
 30
0.0
 11
-64.85783192762875
 21
25.39096517295096
 31
0.0
  0
ARC
  5
3A8
102
{ACAD_REACTORS
330
420
330
421
102
}
330
71
100
AcDbEntity
  8
0
  6
Continuous
 62
     2
100
AcDbCircle
 10
-61.97298578954175
 20
9.77368898961674
 30
0.0
 40
4.85259686349807
100
AcDbArc
 50
74.02000874164739
 51
84.84185523037506
  0
ARC
  5
3A9
102
{ACAD_REACTORS
330
420
330
421
102
}
330
71
100
AcDbEntity
  8
0
  6
Continuous
 62
     2
100
AcDbCircle
 10
-61.39694518078804
 20
12.92944934550104
 30
0.0
 40
0.9059297849853228
100
AcDbArc
 50
71.55192388185348
 51
113.3722778881286
  0
ARC
  5
3AA
102
{ACAD_REACTORS
330
420
330
421
102
}
330
71
100
AcDbEntity
  8
0
  6
Continuous
 62
     2
100
AcDbCircle
 10
-61.55338521349006
 20
12.88129850553415
 30
0.0
 40
0.5115800601948034
100
AcDbArc
 50
208.5214732576956
 51
246.6277221118283
  0
ARC
  5
3AB
102
{ACAD_REACTORS
330
420
330
421
102
}
330
71
100
AcDbEntity
  8
0
  6
Continuous
 62
     2
100
AcDbCircle
 10
-61.39694518078804
 20
13.24329052424415
 30
0.0
 40
0.9059297849849228
100
AcDbArc
 50
246.6277221118717
 51
288.4480761181583
  0
ARC
  5
3AC
102
{ACAD_REACTORS
330
420
330
421
102
}
330
71
100
AcDbEntity
  8
0
  6
Continuous
 62
     2
100
AcDbCircle
 10
-61.81511291444883
 20
14.49683630028133
 30
0.0
 40
2.227384008972739
100
AcDbArc
 50
288.4480761181328
 51
301.9309089499593
  0
ARC
  5
3AD
102
{ACAD_REACTORS
330
41C
330
41D
102
}
330
71
100
AcDbEntity
  8
0
  6
Continuous
 62
     2
100
AcDbCircle
 10
-67.04018664705563
 20
15.22933832919534
 30
0.0
 40
0.9118481501444573
100
AcDbArc
 50
295.3740086781765
 51
64.62599132180766
  0
ARC
  5
3AE
102
{ACAD_REACTORS
330
41C
330
41D
102
}
330
71
100
AcDbEntity
  8
0
  6
Continuous
 62
     2
100
AcDbCircle
 10
-66.51414394896776
 20
16.94401521766994
 30
0.0
 40
0.3157169230760746
100
AcDbArc
 50
90.18896704254594
 51
180.0
  0
ARC
  5
3AF
102
{ACAD_REACTORS
330
41E
330
41F
102
}
330
71
100
AcDbEntity
  8
0
  6
Continuous
 62
     2
100
AcDbCircle
 10
-45.30401373613344
 20
12.87348638382875
 30
0.0
 40
0.9545230068260899
100
AcDbArc
 50
90.0
 51
109.337143219432
  0
ARC
  5
3B0
102
{ACAD_REACTORS
330
41E
330
41F
102
}
330
71
100
AcDbEntity
  8
0
  6
Continuous
 62
     2
100
AcDbCircle
 10
-45.07332647615576
 20
13.08636993487264
 30
0.0
 40
0.9410597353348853
100
AcDbArc
 50
151.4785267423623
 51
208.5214732576697
  0
ARC
  5
3B1
102
{ACAD_REACTORS
330
41E
330
41F
102
}
330
71
100
AcDbEntity
  8
0
  6
Continuous
 62
     2
100
AcDbCircle
 10
-45.29424370153404
 20
13.24329052424415
 30
0.0
 40
0.9059297849852865
100
AcDbArc
 50
246.6277221118184
 51
288.4480761180811
  0
ARC
  5
3B2
102
{ACAD_REACTORS
330
41E
330
41F
102
}
330
71
100
AcDbEntity
  8
0
  6
Continuous
 62
     2
100
AcDbCircle
 10
-45.71241143519595
 20
14.49683630028073
 30
0.0
 40
2.227384008972746
100
AcDbArc
 50
288.4480761181335
 51
301.9309089499399
  0
ARC
  5
3B3
102
{ACAD_REACTORS
330
41E
330
41F
102
}
330
71
100
AcDbEntity
  8
0
  6
Continuous
 62
     2
100
AcDbCircle
 10
-45.87028431028875
 20
16.39905088012904
 30
0.0
 40
4.852596863498823
100
AcDbArc
 50
275.1581447696364
 51
285.9799912583387
  0
ARC
  5
3B4
102
{ACAD_REACTORS
330
41E
330
41F
102
}
330
71
100
AcDbEntity
  8
0
  6
Continuous
 62
     2
100
AcDbCircle
 10
-45.58142821555293
 20
13.19916029690745
 30
0.0
 40
1.639695123940456
100
AcDbArc
 50
195.0618917771012
 51
275.1581447696762
  0
ARC
  5
3B5
102
{ACAD_REACTORS
330
416
330
417
102
}
330
71
100
AcDbEntity
  8
0
  6
Continuous
 62
     2
100
AcDbCircle
 10
-61.30964152724405
 20
16.91709953161916
 30
0.0
 40
1.055365641333712
100
AcDbArc
 50
270.0
 51
90.0
  0
ARC
  5
3B6
102
{ACAD_REACTORS
330
41C
330
41D
102
}
330
71
100
AcDbEntity
  8
0
  6
Continuous
 62
     2
100
AcDbCircle
 10
-69.08969263549946
 20
12.58773765160095
 30
0.0
 40
0.3157169230756836
100
AcDbArc
 50
180.0
 51
270.0
  0
ARC
  5
3B7
102
{ACAD_REACTORS
330
41C
330
41D
102
}
330
71
100
AcDbEntity
  8
0
  6
Continuous
 62
     2
100
AcDbCircle
 10
-67.61385937448983
 20
16.94419269431805
 30
0.0
 40
0.315716923076593
100
AcDbArc
 50
0.0
 51
90.0
  0
ARC
  5
3B8
102
{ACAD_REACTORS
330
41C
330
41D
102
}
330
71
100
AcDbEntity
  8
0
  6
Continuous
 62
     2
100
AcDbCircle
 10
-67.61385937448983
 20
16.34016807525754
 30
0.0
 40
0.3157169230761203
100
AcDbArc
 50
295.1944106485397
 51
0.0
  0
ARC
  5
3B9
102
{ACAD_REACTORS
330
41C
330
41D
102
}
330
71
100
AcDbEntity
  8
0
  6
Continuous
 62
     2
100
AcDbCircle
 10
-67.61385937448983
 20
12.58773765160095
 30
0.0
 40
0.3157169230767103
100
AcDbArc
 50
270.0
 51
0.0
  0
ARC
  5
3BA
102
{ACAD_REACTORS
330
41C
330
41D
102
}
330
71
100
AcDbEntity
  8
0
  6
Continuous
 62
     2
100
AcDbCircle
 10
-69.68358731224595
 20
17.54822055755085
 30
0.0
 40
0.4242446153838024
100
AcDbArc
 50
90.0
 51
180.0
  0
ARC
  5
3BB
102
{ACAD_REACTORS
330
41C
330
41D
102
}
330
71
100
AcDbEntity
  8
0
  6
Continuous
 62
     2
100
AcDbCircle
 10
-64.21027522152914
 20
17.54822055755085
 30
0.0
 40
0.4242446153838841
100
AcDbArc
 50
0.0
 51
90.0
  0
ARC
  5
3BC
102
{ACAD_REACTORS
330
41C
330
41D
102
}
330
71
100
AcDbEntity
  8
0
  6
Continuous
 62
     2
100
AcDbCircle
 10
-64.21027522152914
 20
11.98370978835064
 30
0.0
 40
0.4242446153832891
100
AcDbArc
 50
270.0
 51
0.0
  0
ARC
  5
3BD
102
{ACAD_REACTORS
330
41A
330
41B
102
}
330
71
100
AcDbEntity
  8
0
  6
Continuous
 62
     2
100
AcDbCircle
 10
-54.99189133443764
 20
16.44556041104696
 30
0.0
 40
0.7717997786796407
100
AcDbArc
 50
321.8795802028435
 51
38.12041979715978
  0
ARC
  5
3BE
102
{ACAD_REACTORS
330
41A
330
41B
102
}
330
71
100
AcDbEntity
  8
0
  6
Continuous
 62
     2
100
AcDbCircle
 10
-54.79215129809145
 20
16.28882923292653
 30
0.0
 40
0.5179085730134494
100
AcDbArc
 50
218.1204197971503
 51
321.879580202856
  0
ARC
  5
3BF
102
{ACAD_REACTORS
330
418
330
419
102
}
330
71
100
AcDbEntity
  8
0
  6
Continuous
 62
     2
100
AcDbCircle
 10
-58.47215888705165
 20
13.08636993487264
 30
0.0
 40
1.458034083652003
100
AcDbArc
 50
297.548148175701
 51
62.45185182429898
  0
ARC
  5
3C0
102
{ACAD_REACTORS
330
418
330
419
102
}
330
71
100
AcDbEntity
  8
0
  6
Continuous
 62
     2
100
AcDbCircle
 10
-59.03403867071825
 20
13.08636993487264
 30
0.0
 40
1.458034083651485
100
AcDbArc
 50
117.5481481756619
 51
242.451851824338
  0
ARC
  5
3C1
102
{ACAD_REACTORS
330
418
330
419
102
}
330
71
100
AcDbEntity
  8
0
  6
Continuous
 62
     2
100
AcDbCircle
 10
-58.75309877888495
 20
12.54779492456984
 30
0.0
 40
2.065479772208574
100
AcDbArc
 50
62.45185182430646
 51
117.5481481756661
  0
ARC
  5
3C2
102
{ACAD_REACTORS
330
418
330
419
102
}
330
71
100
AcDbEntity
  8
0
  6
Continuous
 62
     2
100
AcDbCircle
 10
-58.75309877888495
 20
13.62494494517594
 30
0.0
 40
2.065479772208502
100
AcDbArc
 50
242.4518518243403
 51
297.5481481756871
  0
ARC
  5
3C3
102
{ACAD_REACTORS
330
41A
330
41B
102
}
330
71
100
AcDbEntity
  8
0
  6
Continuous
 62
     2
100
AcDbCircle
 10
-54.59241126174516
 20
16.44556041104696
 30
0.0
 40
0.7717997786796745
100
AcDbArc
 50
141.8795802028402
 51
218.1204197971566
  0
ARC
  5
3C4
102
{ACAD_REACTORS
330
41A
330
41B
102
}
330
71
100
AcDbEntity
  8
0
  6
Continuous
 62
     2
100
AcDbCircle
 10
-54.79215129809145
 20
16.60229158916744
 30
0.0
 40
0.5179085730135231
100
AcDbArc
 50
38.12041979714413
 51
141.8795802028496
  0
ARC
  5
3C5
102
{ACAD_REACTORS
330
41C
330
41D
102
}
330
71
100
AcDbEntity
  8
0
  6
Continuous
 62
     2
100
AcDbCircle
 10
-69.68358731224595
 20
11.98370978835064
 30
0.0
 40
0.4242446153828041
100
AcDbArc
 50
180.0
 51
270.0
  0
ARC
  5
3C6
102
{ACAD_REACTORS
330
41C
330
41D
102
}
330
71
100
AcDbEntity
  8
0
  6
Continuous
 62
     2
100
AcDbCircle
 10
-67.61385937448983
 20
14.11850858313255
 30
0.0
 40
0.315716923076593
100
AcDbArc
 50
0.0
 51
64.80558935146027
  0
ARC
  5
3C7
102
{ACAD_REACTORS
330
41C
330
41D
102
}
330
71
100
AcDbEntity
  8
0
  6
Continuous
 62
     2
100
AcDbCircle
 10
-67.09127492691485
 20
15.22933832919534
 30
0.0
 40
0.911897523557621
100
AcDbArc
 50
115.194410648528
 51
244.8055893514877
  0
ARC
  5
3C8
102
{ACAD_REACTORS
330
41C
330
41D
102
}
330
71
100
AcDbEntity
  8
0
  6
Continuous
 62
     2
100
AcDbCircle
 10
-69.08969263549946
 20
16.94419269431805
 30
0.0
 40
0.315716923076188
100
AcDbArc
 50
90.0
 51
180.0
  0
ARC
  5
3C9
102
{ACAD_REACTORS
330
416
330
417
102
}
330
71
100
AcDbEntity
  8
0
  6
Continuous
 62
     2
100
AcDbCircle
 10
-61.75111405348244
 20
16.95649550284165
 30
0.0
 40
0.3528638246711218
100
AcDbArc
 50
270.0
 51
90.0
  0
ARC
  5
3CA
102
{ACAD_REACTORS
330
41A
330
41B
102
}
330
71
100
AcDbEntity
  8
0
  6
Continuous
 62
     2
100
AcDbCircle
 10
-55.00842330825665
 20
16.44556041104696
 30
0.0
 40
1.526904761905882
100
AcDbArc
 50
90.0
 51
270.0
  0
ARC
  5
3CB
102
{ACAD_REACTORS
330
41E
330
41F
102
}
330
71
100
AcDbEntity
  8
0
  6
Continuous
 62
     2
100
AcDbCircle
 10
-45.58142821555293
 20
12.97357957283774
 30
0.0
 40
1.639695123940209
100
AcDbArc
 50
90.0
 51
164.9381082228952
  0
ARC
  5
3CC
102
{ACAD_REACTORS
330
41E
330
41F
102
}
330
71
100
AcDbEntity
  8
0
  6
Continuous
 62
     2
100
AcDbCircle
 10
-46.00055605901454
 20
13.08636993487264
 30
0.0
 40
1.205656168393009
100
AcDbArc
 50
164.938108222903
 51
195.0618917770961
  0
ARC
  5
3CD
102
{ACAD_REACTORS
330
41E
330
41F
102
}
330
71
100
AcDbEntity
  8
0
  6
Continuous
 62
     2
100
AcDbCircle
 10
-45.45068373423715
 20
12.88129850553415
 30
0.0
 40
0.5115800601960153
100
AcDbArc
 50
208.521473257687
 51
246.6277221118459
  0
ARC
  5
3CE
102
{ACAD_REACTORS
330
41E
330
41F
102
}
330
71
100
AcDbEntity
  8
0
  6
Continuous
 62
     2
100
AcDbCircle
 10
-45.45068373423715
 20
13.29144136421164
 30
0.0
 40
0.5115800601944086
100
AcDbArc
 50
109.3371432194847
 51
151.4785267424222
  0
ARC
  5
3CF
102
{ACAD_REACTORS
330
41C
330
41D
102
}
330
71
100
AcDbEntity
  8
0
  6
Continuous
 62
     2
100
AcDbCircle
 10
-66.51414394896776
 20
13.53834532253185
 30
0.0
 40
0.315716923076792
100
AcDbArc
 50
180.0
 51
269.8110329574542
  0
ARC
  5
3D0
102
{ACAD_REACTORS
330
41C
330
41D
102
}
330
71
100
AcDbEntity
  8
0
  6
Continuous
 62
     2
100
AcDbCircle
 10
-66.50852781365774
 20
15.24118027010084
 30
0.0
 40
2.018561131933266
100
AcDbArc
 50
269.8110329575858
 51
90.18896704241416
  0
ARC
  5
3D1
102
{ACAD_REACTORS
330
41C
330
41D
102
}
330
71
100
AcDbEntity
  8
0
  6
Continuous
 62
     2
100
AcDbCircle
 10
-66.51414394896776
 20
16.33847992916316
 30
0.0
 40
0.315716923076792
100
AcDbArc
 50
180.0
 51
244.6259913216482
  0
ARC
  5
3D2
102
{ACAD_REACTORS
330
41C
330
41D
102
}
330
71
100
AcDbEntity
  8
0
  6
Continuous
 62
     2
100
AcDbCircle
 10
-66.51414394896776
 20
14.12019672922693
 30
0.0
 40
0.3157169230765344
100
AcDbArc
 50
115.3740086783517
 51
180.0
  0
ARC
  5
3D3
102
{ACAD_REACTORS
330
420
330
421
102
}
330
71
100
AcDbEntity
  8
0
  6
Continuous
 62
     2
100
AcDbCircle
 10
-61.68412969480585
 20
12.97357957283774
 30
0.0
 40
1.639695123940505
100
AcDbArc
 50
84.84185523036236
 51
164.9381082228866
  0
ARC
  5
3D4
102
{ACAD_REACTORS
330
420
330
421
102
}
330
71
100
AcDbEntity
  8
0
  6
Continuous
 62
     2
100
AcDbCircle
 10
-62.10325753826865
 20
13.08636993487264
 30
0.0
 40
1.205656168390943
100
AcDbArc
 50
164.9381082228765
 51
195.0618917770949
  0
ARC
  5
3D5
102
{ACAD_REACTORS
330
420
330
421
102
}
330
71
100
AcDbEntity
  8
0
  6
Continuous
 62
     2
100
AcDbCircle
 10
-61.68412969480585
 20
13.19916029690745
 30
0.0
 40
1.639695123939387
100
AcDbArc
 50
195.0618917770895
 51
275.1581447696395
  0
ARC
  5
3D6
102
{ACAD_REACTORS
330
420
330
421
102
}
330
71
100
AcDbEntity
  8
0
  6
Continuous
 62
     2
100
AcDbCircle
 10
-61.97298578954175
 20
16.39905088012904
 30
0.0
 40
4.852596863498134
100
AcDbArc
 50
275.1581447696249
 51
285.9799912583529
  0
ARC
  5
3D7
102
{ACAD_REACTORS
330
420
330
421
102
}
330
71
100
AcDbEntity
  8
0
  6
Continuous
 62
     2
100
AcDbCircle
 10
-61.17602795540975
 20
13.08636993487264
 30
0.0
 40
0.9410597353332545
100
AcDbArc
 50
151.4785267422669
 51
208.5214732577057
  0
ARC
  5
3D8
102
{ACAD_REACTORS
330
420
330
421
102
}
330
71
100
AcDbEntity
  8
0
  6
Continuous
 62
     2
100
AcDbCircle
 10
-61.55338521349006
 20
13.29144136421164
 30
0.0
 40
0.5115800601948685
100
AcDbArc
 50
113.3722778881987
 51
151.4785267423044
  0
ARC
  5
3D9
102
{ACAD_REACTORS
330
420
330
421
102
}
330
71
100
AcDbEntity
  8
0
  6
Continuous
 62
     2
100
AcDbCircle
 10
-61.81511291444883
 20
11.67590356946445
 30
0.0
 40
2.227384008973482
100
AcDbArc
 50
58.0690910500408
 51
71.55192388186722
  0
ARC
  5
3DA
102
{ACAD_REACTORS
330
418
330
419
102
}
330
71
100
AcDbEntity
  8
0
  6
Continuous
 62
     2
100
AcDbCircle
 10
-58.75309877888495
 20
13.24310111299315
 30
0.0
 40
0.5179085730132965
100
AcDbArc
 50
38.12041979714657
 51
141.8795802028592
  0
ARC
  5
3DB
102
{ACAD_REACTORS
330
418
330
419
102
}
330
71
100
AcDbEntity
  8
0
  6
Continuous
 62
     2
100
AcDbCircle
 10
-58.55335874253885
 20
13.08636993487264
 30
0.0
 40
0.771799778679461
100
AcDbArc
 50
141.8795802028365
 51
218.1204197971687
  0
ARC
  5
3DC
102
{ACAD_REACTORS
330
418
330
419
102
}
330
71
100
AcDbEntity
  8
0
  6
Continuous
 62
     2
100
AcDbCircle
 10
-58.75309877888495
 20
12.92963875675264
 30
0.0
 40
0.5179085730137343
100
AcDbArc
 50
218.120419797193
 51
321.8795802028012
  0
ARC
  5
3DD
102
{ACAD_REACTORS
330
418
330
419
102
}
330
71
100
AcDbEntity
  8
0
  6
Continuous
 62
     2
100
AcDbCircle
 10
-58.95283881523136
 20
13.08636993487264
 30
0.0
 40
0.7717997786796947
100
AcDbArc
 50
321.8795802028417
 51
38.12041979715308
  0
CIRCLE
  5
3DE
330
71
100
AcDbEntity
  8
1
  6
Continuous
 62
     2
100
AcDbCircle
 10
-61.60783192762875
 20
25.39096517295096
 30
0.0
 40
2.5
  0
CIRCLE
  5
3DF
330
71
100
AcDbEntity
  8
1
  6
Continuous
 62
     2
100
AcDbCircle
 10
-61.60783192762875
 20
25.39096517295096
 30
0.0
 40
1.249999999999915
  0
CIRCLE
  5
3E0
102
{ACAD_REACTORS
330
41C
330
41D
102
}
330
71
100
AcDbEntity
  8
0
  6
Continuous
 62
     2
100
AcDbCircle
 10
-67.06400166172844
 20
15.22933832919534
 30
0.0
 40
0.4709789327785074
  0
MTEXT
  5
3E1
330
71
100
AcDbEntity
  8
1
 62
     3
100
AcDbMText
 10
-231.7946145013696
 20
191.0572733282498
 30
0.0
 40
1.8
 41
0.0
 71
     7
 72
     1
  3
Weitergabe sowie Vervielf\U+00e4ltigung dieses Dokuments, Verwertung und \PMitteilung seines Inhalts sind verboten, soweit nicht ausdr\U+00fccklich gestattet. \PZuwiderhandlungen verpflichten zu Schadenersatz. Alle Rechte f\U+00fcr den Fall\Pder Pat
  1
ent-, Gebrauchsmuster- oder Designeintragung vorbehalten.
  7
CONVERTER_11
 73
     1
 44
0.99639855942377
  0
MTEXT
  5
3E2
330
71
100
AcDbEntity
  8
1
 62
     3
100
AcDbMText
 10
-48.94150466258145
 20
191.0572733282498
 30
0.0
 40
1.8
 41
0.0
 71
     7
 72
     1
  3
Transfer or duplication of this document as well as the utilisation or\Pcommunication of its content are not permitted unless express consent\Pis granted. Violations give rise to claims for damages. All rights reserved\Pin case of patent, utility mo
  1
del or design patent registrations.
  7
CONVERTER_11
 73
     1
 44
0.99639855942377
  0
TEXT
  5
3E3
330
71
100
AcDbEntity
  8
1
 62
     2
100
AcDbText
 10
-55.14448681419154
 20
5.50694795795943
 30
0.0
 40
1.8
  1
of
 41
0.9
  7
CONVERTER_11
100
AcDbText
  0
TEXT
  5
3E4
330
71
100
AcDbEntity
  8
1
 62
     2
100
AcDbText
 10
-73.34448681419136
 20
5.50694795795937
 30
0.0
 40
1.8
  1
page
 41
0.9
  7
CONVERTER_11
100
AcDbText
  0
TEXT
  5
3E5
330
71
100
AcDbEntity
  8
1
 62
     2
100
AcDbText
 10
-64.69822184384935
 20
5.46671651914903
 30
0.0
 40
1.8
  1
1
 41
0.9
  7
CONVERTER_11
100
AcDbText
  0
TEXT
  5
3E6
330
71
100
AcDbEntity
  8
1
 62
     2
100
AcDbText
 10
-49.90917800437785
 20
5.51596517295093
 30
0.0
 40
1.8
  1
1
 41
0.9
  7
CONVERTER_11
100
AcDbText
  0
MTEXT
  5
3E8
330
71
100
AcDbEntity
  8
1
 62
     7
100
AcDbMText
 10
8.62791544918414
 20
7.51596517295127
 30
0.0
 40
3.0
 41
0.0
 71
     5
 72
     1
  1
UKN 35 BU
  7
CONVERTER_12
 73
     1
 44
1.20048019207683
  0
MTEXT
  5
3E9
330
71
100
AcDbEntity
  8
1
 62
     2
100
AcDbMText
 10
-36.94448681419144
 20
11.76596517295104
 30
0.0
 40
1.8
 41
0.0
 71
     1
 72
     1
  1
description
  7
CONVERTER_11
 73
     1
 44
1.20048019207683
  0
MTEXT
  5
3EA
330
71
100
AcDbEntity
  8
1
 62
     3
100
AcDbMText
 10
-48.14448681419145
 20
25.39096517295104
 30
0.0
 40
2.5
 41
0.0
 71
     5
 72
     1
  1
DIN A4
  7
CONVERTER_11
 73
     1
 44
1.20048019207683
  0
MTEXT
  5
3EB
330
71
100
AcDbEntity
  8
1
 62
     7
100
AcDbMText
 10
-234.2996822874404
 20
26.76596517295104
 30
0.0
 40
3.5
 41
0.0
 71
     5
 72
     1
  1
D
  7
CONVERTER_11
 73
     1
 44
1.20048019207683
  0
MTEXT
  5
3EC
330
71
100
AcDbEntity
  8
1
 62
     7
100
AcDbMText
 10
-234.2996822874404
 20
79.26596517295104
 30
0.0
 40
3.5
 41
0.0
 71
     5
 72
     1
  1
C
  7
CONVERTER_11
 73
     1
 44
1.20048019207683
  0
MTEXT
  5
3ED
330
71
100
AcDbEntity
  8
1
 62
     7
100
AcDbMText
 10
-234.2996822874404
 20
129.265965172951
 30
0.0
 40
3.5
 41
0.0
 71
     5
 72
     1
  1
B
  7
CONVERTER_11
 73
     1
 44
1.20048019207683
  0
MTEXT
  5
3EE
330
71
100
AcDbEntity
  8
1
 62
     7
100
AcDbMText
 10
-234.2996822874404
 20
181.765965172951
 30
0.0
 40
3.5
 41
0.0
 71
     5
 72
     1
  1
A
  7
CONVERTER_11
 73
     1
 44
1.20048019207683
  0
MTEXT
  5
3EF
330
71
100
AcDbEntity
  8
1
 62
     7
100
AcDbMText
 10
35.95031771255785
 20
1.76596517295093
 30
0.0
 40
3.5
 41
0.0
 71
     5
 72
     1
  1
6
  7
CONVERTER_11
 73
     1
 44
1.20048019207683
  0
MTEXT
  5
3F0
330
71
100
AcDbEntity
  8
1
 62
     7
100
AcDbMText
 10
-13.29968228744136
 20
1.76596517295093
 30
0.0
 40
3.5
 41
0.0
 71
     5
 72
     1
  1
5
  7
CONVERTER_11
 73
     1
 44
1.20048019207683
  0
MTEXT
  5
3F1
330
71
100
AcDbEntity
  8
1
 62
     7
100
AcDbMText
 10
-63.29968228744144
 20
1.76596517295093
 30
0.0
 40
3.5
 41
0.0
 71
     5
 72
     1
  1
4
  7
CONVERTER_11
 73
     1
 44
1.20048019207683
  0
MTEXT
  5
3F2
330
71
100
AcDbEntity
  8
1
 62
     7
100
AcDbMText
 10
-113.2996822874413
 20
1.76596517295093
 30
0.0
 40
3.5
 41
0.0
 71
     5
 72
     1
  1
3
  7
CONVERTER_11
 73
     1
 44
1.20048019207683
  0
MTEXT
  5
3F3
330
71
100
AcDbEntity
  8
1
 62
     7
100
AcDbMText
 10
-163.2996822874413
 20
1.76596517295093
 30
0.0
 40
3.5
 41
0.0
 71
     5
 72
     1
  1
2
  7
CONVERTER_11
 73
     1
 44
1.20048019207683
  0
MTEXT
  5
3F4
330
71
100
AcDbEntity
  8
1
 62
     7
100
AcDbMText
 10
-212.5496822874409
 20
1.76596517295093
 30
0.0
 40
3.5
 41
0.0
 71
     5
 72
     1
  1
1
  7
CONVERTER_11
 73
     1
 44
1.20048019207683
  0
MTEXT
  5
3F5
330
71
100
AcDbEntity
  8
1
 62
     7
100
AcDbMText
 10
57.70031771255765
 20
26.76596517295104
 30
0.0
 40
3.5
 41
0.0
 71
     5
 72
     1
  1
D
  7
CONVERTER_11
 73
     1
 44
1.20048019207683
  0
MTEXT
  5
3F6
330
71
100
AcDbEntity
  8
1
 62
     7
100
AcDbMText
 10
57.70031771255765
 20
129.265965172953
 30
0.0
 40
3.5
 41
0.0
 71
     5
 72
     1
  1
B
  7
CONVERTER_11
 73
     1
 44
1.20048019207683
  0
MTEXT
  5
3F7
330
71
100
AcDbEntity
  8
1
 62
     7
100
AcDbMText
 10
57.70031771255765
 20
181.765965172951
 30
0.0
 40
3.5
 41
0.0
 71
     5
 72
     1
  1
A
  7
CONVERTER_11
 73
     1
 44
1.20048019207683
  0
MTEXT
  5
3F8
330
71
100
AcDbEntity
  8
1
 62
     7
100
AcDbMText
 10
57.70031771255765
 20
79.26596517295295
 30
0.0
 40
3.5
 41
0.0
 71
     5
 72
     1
  1
C
  7
CONVERTER_11
 73
     1
 44
1.20048019207683
  0
MTEXT
  5
3F9
330
71
100
AcDbEntity
  8
1
 62
     2
100
AcDbMText
 10
-108.7825015392389
 20
17.01596517295096
 30
0.0
 40
2.0
 41
0.0
 71
     5
 72
     1
  1
General Information\P- Simplified representation\P- Document excluded from change process\P- Linear dimensions [mm]
  7
CONVERTER_11
 73
     1
 44
1.20048019207683
  0
TEXT
  5
3FA
330
71
100
AcDbEntity
  8
1
 62
     7
100
AcDbText
 10
-36.44448681419163
 20
14.06596517295094
 30
0.0
 40
2.5
  1
3034099
 41
0.81
  7
CONVERTER_12
100
AcDbText
  0
MTEXT
  5
3FB
330
71
100
AcDbEntity
  8
1
 62
     2
100
AcDbMText
 10
-36.84448681419136
 20
20.26596517295104
 30
0.0
 40
1.8
 41
0.0
 71
     1
 72
     1
  1
ident.-No.
  7
CONVERTER_11
 73
     1
 44
1.20048019207683
  0
MTEXT
  5
3FC
330
71
100
AcDbEntity
  8
1
 62
     2
100
AcDbMText
 10
47.38190943088137
 20
28.76596517295104
 30
0.0
 40
1.8
 41
0.0
 71
     1
 72
     1
  1
scale
  7
CONVERTER_11
 73
     1
 44
1.20048019207683
  0
MTEXT
  5
3FE
330
71
100
AcDbEntity
  8
1
 62
     3
100
AcDbMText
 10
50.74111357172096
 20
22.56596517295114
 30
0.0
 40
2.5
 41
0.0
 71
     8
 72
     1
  1
1:1
  7
CONVERTER_13
 73
     1
 44
1.32052821128451
  0
TEXT
  5
3FF
330
71
100
AcDbEntity
  8
1
 62
     7
100
AcDbText
 10
-36.84448681419136
 20
22.56596517295094
 30
0.0
 40
2.5
  1
00354454
 41
0.81
  7
CONVERTER_12
100
AcDbText
  0
MTEXT
  5
401
330
71
100
AcDbEntity
  8
1
 62
     2
100
AcDbMText
 10
-36.84448681419136
 20
28.76596517295104
 30
0.0
 40
1.8
 41
0.0
 71
     1
 72
     1
  1
document-No. / RI
  7
CONVERTER_14
 73
     1
 44
1.32052821128451
  0
TEXT
  5
402
330
71
100
AcDbEntity
  8
1
 62
     3
100
AcDbText
 10
-9.04448681419134
 20
14.06596517295094
 30
0.0
 40
2.5
  1
TECDOC 2D_Productdrawing
 41
0.81
  7
CONVERTER_12
100
AcDbText
  0
MTEXT
  5
403
330
71
100
AcDbEntity
  8
1
 62
     2
100
AcDbMText
 10
-9.04448681419134
 20
20.26596517295096
 30
0.0
 40
1.8
 41
0.0
 71
     1
 72
     1
  1
document-type
  7
CONVERTER_11
 73
     1
 44
1.20048019207683
  0
MTEXT
  5
404
330
71
100
AcDbEntity
  8
1
 62
     2
100
AcDbMText
 10
20.78190943088154
 20
28.76596517295096
 30
0.0
 40
1.8
 41
0.0
 71
     1
 72
     1
  1
date
  7
CONVERTER_11
 73
     1
 44
1.32052821128451
  0
TEXT
  5
405
330
71
100
AcDbEntity
  8
1
 62
     3
100
AcDbText
 10
20.78190943088154
 20
22.56596517295094
 30
0.0
 40
2.5
  1
13.01.2018
 41
0.81
  7
CONVERTER_12
100
AcDbText
  0
TEXT
  5
406
330
71
100
AcDbEntity
  8
1
 62
     7
100
AcDbText
 10
-16.81457459513555
 20
22.56596517295094
 30
0.0
 40
2.5
  1
01
 41
0.81
  7
CONVERTER_12
100
AcDbText
  0
TEXT
  5
407
330
71
100
AcDbEntity
  8
1
 62
     7
100
AcDbText
 10
-18.97093909217756
 20
22.56596517295094
 30
0.0
 40
2.5
  1
/
 41
0.9
  7
CONVERTER_11
100
AcDbText
  0
HATCH
  5
408
330
71
100
AcDbEntity
  8
1
  6
Continuous
 62
     2
100
AcDbHatch
 10
0.0
 20
0.0
 30
0.0
210
0.0
220
0.0
230
1.0
  2
_USER
 70
     0
 71
     1
 91
        1
 92
        1
 93
       12
 72
     1
 10
-56.67698610123026
 20
14.91865564914164
 11
-57.86977880339666
 21
14.91865564914164
 72
     1
 10
-57.86977880339666
 20
14.91865564914164
 11
-57.86977880339666
 21
16.05292775798546
 72
     1
 10
-57.86977880339666
 20
16.05292775798546
 11
-58.91943638130414
 21
16.05292775798546
 72
     1
 10
-58.91943638130414
 20
16.05292775798546
 11
-58.91943638130414
 21
14.91865564914164
 72
     1
 10
-58.91943638130414
 20
14.91865564914164
 11
-60.11222908347074
 21
14.91865564914164
 72
     1
 10
-60.11222908347074
 20
14.91865564914164
 11
-60.11222908347074
 21
17.97246517295284
 72
     1
 10
-60.11222908347074
 20
17.97246517295284
 11
-58.91943638130414
 21
17.97246517295284
 72
     1
 10
-58.91943638130414
 20
17.97246517295284
 11
-58.91943638130414
 21
16.90363183961824
 72
     1
 10
-58.91943638130414
 20
16.90363183961824
 11
-57.86977880339666
 21
16.90363183961824
 72
     1
 10
-57.86977880339666
 20
16.90363183961824
 11
-57.86977880339666
 21
17.97246517295284
 72
     1
 10
-57.86977880339666
 20
17.97246517295284
 11
-56.67698610123026
 21
17.97246517295284
 72
     1
 10
-56.67698610123026
 20
17.97246517295284
 11
-56.67698610123026
 21
14.91865564914164
 97
       12
330
375
330
376
330
360
330
35F
330
35E
330
372
330
35D
330
373
330
374
330
35C
330
35B
330
35A
 75
     1
 76
     0
 52
45.0
 41
0.1
 77
     0
 78
     1
 53
45.0
 43
0.0
 44
0.0
 45
-0.0707106781186548
 46
0.0707106781186548
 79
     0
 98
        1
 10
0.0
 20
0.0
  0
HATCH
  5
409
330
71
100
AcDbEntity
  8
1
  6
Continuous
 62
     2
100
AcDbHatch
 10
0.0
 20
0.0
 30
0.0
210
0.0
220
0.0
230
1.0
  2
_USER
 70
     0
 71
     1
 91
        1
 92
        1
 93
       12
 72
     1
 10
-56.67698610123026
 20
14.91865564914164
 11
-57.86977880339666
 21
14.91865564914164
 72
     1
 10
-57.86977880339666
 20
14.91865564914164
 11
-57.86977880339666
 21
16.05292775798546
 72
     1
 10
-57.86977880339666
 20
16.05292775798546
 11
-58.91943638130414
 21
16.05292775798546
 72
     1
 10
-58.91943638130414
 20
16.05292775798546
 11
-58.91943638130414
 21
14.91865564914164
 72
     1
 10
-58.91943638130414
 20
14.91865564914164
 11
-60.11222908347074
 21
14.91865564914164
 72
     1
 10
-60.11222908347074
 20
14.91865564914164
 11
-60.11222908347074
 21
17.97246517295284
 72
     1
 10
-60.11222908347074
 20
17.97246517295284
 11
-58.91943638130414
 21
17.97246517295284
 72
     1
 10
-58.91943638130414
 20
17.97246517295284
 11
-58.91943638130414
 21
16.90363183961824
 72
     1
 10
-58.91943638130414
 20
16.90363183961824
 11
-57.86977880339666
 21
16.90363183961824
 72
     1
 10
-57.86977880339666
 20
16.90363183961824
 11
-57.86977880339666
 21
17.97246517295284
 72
     1
 10
-57.86977880339666
 20
17.97246517295284
 11
-56.67698610123026
 21
17.97246517295284
 72
     1
 10
-56.67698610123026
 20
17.97246517295284
 11
-56.67698610123026
 21
14.91865564914164
 97
       12
330
375
330
376
330
360
330
35F
330
35E
330
372
330
35D
330
373
330
374
330
35C
330
35B
330
35A
 75
     1
 76
     0
 52
45.0
 41
0.1
 77
     0
 78
     1
 53
45.0
 43
0.0
 44
0.0
 45
-0.0707106781186548
 46
0.0707106781186548
 79
     0
 98
        1
 10
0.0
 20
0.0
  0
HATCH
  5
40A
330
71
100
AcDbEntity
  8
1
  6
Continuous
 62
     2
100
AcDbHatch
 10
0.0
 20
0.0
 30
0.0
210
0.0
220
0.0
230
1.0
  2
_USER
 70
     0
 71
     1
 91
        1
 92
        1
 93
       10
 72
     1
 10
-54.43468675204196
 20
13.30449918657334
 11
-55.67519116229485
 21
14.61327469677843
 72
     1
 10
-55.67519116229485
 20
14.61327469677843
 11
-56.86798386446245
 21
14.61327469677843
 72
     1
 10
-56.86798386446245
 20
14.61327469677843
 11
-56.86798386446245
 21
11.55946517296735
 72
     1
 10
-56.86798386446245
 20
11.55946517296735
 11
-55.67519116229485
 21
11.55946517296735
 72
     1
 10
-55.67519116229485
 20
11.55946517296735
 11
-55.67519116229485
 21
12.86824068317193
 72
     1
 10
-55.67519116229485
 20
12.86824068317193
 11
-54.43468675204196
 21
11.55946517296735
 72
     1
 10
-54.43468675204196
 20
11.55946517296735
 11
-53.24189404987556
 21
11.55946517296735
 72
     1
 10
-53.24189404987556
 20
11.55946517296735
 11
-53.24189404987556
 21
14.61327469677843
 72
     1
 10
-53.24189404987556
 20
14.61327469677843
 11
-54.43468675204196
 21
14.61327469677843
 72
     1
 10
-54.43468675204196
 20
14.61327469677843
 11
-54.43468675204196
 21
13.30449918657334
 97
       10
330
383
330
353
330
352
330
355
330
37E
330
37F
330
354
330
380
330
381
330
382
 75
     1
 76
     0
 52
45.0
 41
0.1
 77
     0
 78
     1
 53
45.0
 43
0.0
 44
0.0
 45
-0.0707106781186548
 46
0.0707106781186548
 79
     0
 98
        1
 10
0.0
 20
0.0
  0
HATCH
  5
40B
330
71
100
AcDbEntity
  8
1
  6
Continuous
 62
     2
100
AcDbHatch
 10
0.0
 20
0.0
 30
0.0
210
0.0
220
0.0
230
1.0
  2
_USER
 70
     0
 71
     1
 91
        1
 92
        1
 93
       10
 72
     1
 10
-54.43468675204196
 20
13.30449918657334
 11
-55.67519116229485
 21
14.61327469677843
 72
     1
 10
-55.67519116229485
 20
14.61327469677843
 11
-56.86798386446245
 21
14.61327469677843
 72
     1
 10
-56.86798386446245
 20
14.61327469677843
 11
-56.86798386446245
 21
11.55946517296735
 72
     1
 10
-56.86798386446245
 20
11.55946517296735
 11
-55.67519116229485
 21
11.55946517296735
 72
     1
 10
-55.67519116229485
 20
11.55946517296735
 11
-55.67519116229485
 21
12.86824068317193
 72
     1
 10
-55.67519116229485
 20
12.86824068317193
 11
-54.43468675204196
 21
11.55946517296735
 72
     1
 10
-54.43468675204196
 20
11.55946517296735
 11
-53.24189404987556
 21
11.55946517296735
 72
     1
 10
-53.24189404987556
 20
11.55946517296735
 11
-53.24189404987556
 21
14.61327469677843
 72
     1
 10
-53.24189404987556
 20
14.61327469677843
 11
-54.43468675204196
 21
14.61327469677843
 72
     1
 10
-54.43468675204196
 20
14.61327469677843
 11
-54.43468675204196
 21
13.30449918657334
 97
       10
330
383
330
353
330
352
330
355
330
37E
330
37F
330
354
330
380
330
381
330
382
 75
     1
 76
     0
 52
45.0
 41
0.1
 77
     0
 78
     1
 53
45.0
 43
0.0
 44
0.0
 45
-0.0707106781186548
 46
0.0707106781186548
 79
     0
 98
        1
 10
0.0
 20
0.0
  0
HATCH
  5
40C
330
71
100
AcDbEntity
  8
1
  6
Continuous
 62
     2
100
AcDbHatch
 10
0.0
 20
0.0
 30
0.0
210
0.0
220
0.0
230
1.0
  2
_USER
 70
     0
 71
     1
 91
        1
 92
        1
 93
       10
 72
     1
 10
-49.18624793162223
 20
16.66368966274766
 11
-50.42675234187624
 21
17.97246517295284
 72
     1
 10
-50.42675234187624
 20
17.97246517295284
 11
-51.61954504404275
 21
17.97246517295284
 72
     1
 10
-51.61954504404275
 20
17.97246517295284
 11
-51.61954504404275
 21
14.91865564914164
 72
     1
 10
-51.61954504404275
 20
14.91865564914164
 11
-50.42675234187624
 21
14.91865564914164
 72
     1
 10
-50.42675234187624
 20
14.91865564914164
 11
-50.42675234187624
 21
16.22743115934634
 72
     1
 10
-50.42675234187624
 20
16.22743115934634
 11
-49.18624793162223
 21
14.91865564914164
 72
     1
 10
-49.18624793162223
 20
14.91865564914164
 11
-47.99345522945563
 21
14.91865564914164
 72
     1
 10
-47.99345522945563
 20
14.91865564914164
 11
-47.99345522945563
 21
17.97246517295284
 72
     1
 10
-47.99345522945563
 20
17.97246517295284
 11
-49.18624793162223
 21
17.97246517295284
 72
     1
 10
-49.18624793162223
 20
17.97246517295284
 11
-49.18624793162223
 21
16.66368966274766
 97
       10
330
388
330
350
330
34F
330
389
330
34E
330
384
330
385
330
386
330
387
330
351
 75
     1
 76
     0
 52
45.0
 41
0.1
 77
     0
 78
     1
 53
45.0
 43
0.0
 44
0.0
 45
-0.0707106781186548
 46
0.0707106781186548
 79
     0
 98
        1
 10
0.0
 20
0.0
  0
HATCH
  5
40D
330
71
100
AcDbEntity
  8
1
  6
Continuous
 62
     2
100
AcDbHatch
 10
0.0
 20
0.0
 30
0.0
210
0.0
220
0.0
230
1.0
  2
_USER
 70
     0
 71
     1
 91
        1
 92
        1
 93
       10
 72
     1
 10
-49.18624793162223
 20
16.66368966274766
 11
-50.42675234187624
 21
17.97246517295284
 72
     1
 10
-50.42675234187624
 20
17.97246517295284
 11
-51.61954504404275
 21
17.97246517295284
 72
     1
 10
-51.61954504404275
 20
17.97246517295284
 11
-51.61954504404275
 21
14.91865564914164
 72
     1
 10
-51.61954504404275
 20
14.91865564914164
 11
-50.42675234187624
 21
14.91865564914164
 72
     1
 10
-50.42675234187624
 20
14.91865564914164
 11
-50.42675234187624
 21
16.22743115934634
 72
     1
 10
-50.42675234187624
 20
16.22743115934634
 11
-49.18624793162223
 21
14.91865564914164
 72
     1
 10
-49.18624793162223
 20
14.91865564914164
 11
-47.99345522945563
 21
14.91865564914164
 72
     1
 10
-47.99345522945563
 20
14.91865564914164
 11
-47.99345522945563
 21
17.97246517295284
 72
     1
 10
-47.99345522945563
 20
17.97246517295284
 11
-49.18624793162223
 21
17.97246517295284
 72
     1
 10
-49.18624793162223
 20
17.97246517295284
 11
-49.18624793162223
 21
16.66368966274766
 97
       10
330
388
330
350
330
34F
330
389
330
34E
330
384
330
385
330
386
330
387
330
351
 75
     1
 76
     0
 52
45.0
 41
0.1
 77
     0
 78
     1
 53
45.0
 43
0.0
 44
0.0
 45
-0.0707106781186548
 46
0.0707106781186548
 79
     0
 98
        1
 10
0.0
 20
0.0
  0
HATCH
  5
40E
330
71
100
AcDbEntity
  8
1
  6
Continuous
 62
     2
100
AcDbHatch
 10
0.0
 20
0.0
 30
0.0
210
0.0
220
0.0
230
1.0
  2
_USER
 70
     0
 71
     1
 91
        1
 92
        1
 93
        8
 72
     1
 10
-50.28376814850174
 20
14.61327469677843
 11
-53.09875892561536
 21
14.61327469677843
 72
     1
 10
-53.09875892561536
 20
14.61327469677843
 11
-53.09875892561536
 21
13.82800939065484
 72
     1
 10
-53.09875892561536
 20
13.82800939065484
 11
-52.28765988814075
 21
13.82800939065484
 72
     1
 10
-52.28765988814075
 20
13.82800939065484
 11
-52.28765988814075
 21
11.55946517296735
 72
     1
 10
-52.28765988814075
 20
11.55946517296735
 11
-51.09486718597424
 21
11.55946517296735
 72
     1
 10
-51.09486718597424
 20
11.55946517296735
 11
-51.09486718597424
 21
13.82800939065484
 72
     1
 10
-51.09486718597424
 20
13.82800939065484
 11
-50.28376814850174
 21
13.82800939065484
 72
     1
 10
-50.28376814850174
 20
13.82800939065484
 11
-50.28376814850174
 21
14.61327469677843
 97
        8
330
34A
330
38A
330
349
330
38B
330
38C
330
34D
330
34C
330
34B
 75
     1
 76
     0
 52
45.0
 41
0.1
 77
     0
 78
     1
 53
45.0
 43
0.0
 44
0.0
 45
-0.0707106781186548
 46
0.0707106781186548
 79
     0
 98
        1
 10
0.0
 20
0.0
  0
HATCH
  5
40F
330
71
100
AcDbEntity
  8
1
  6
Continuous
 62
     2
100
AcDbHatch
 10
0.0
 20
0.0
 30
0.0
210
0.0
220
0.0
230
1.0
  2
_USER
 70
     0
 71
     1
 91
        1
 92
        1
 93
        8
 72
     1
 10
-50.28376814850174
 20
14.61327469677843
 11
-53.09875892561536
 21
14.61327469677843
 72
     1
 10
-53.09875892561536
 20
14.61327469677843
 11
-53.09875892561536
 21
13.82800939065484
 72
     1
 10
-53.09875892561536
 20
13.82800939065484
 11
-52.28765988814075
 21
13.82800939065484
 72
     1
 10
-52.28765988814075
 20
13.82800939065484
 11
-52.28765988814075
 21
11.55946517296735
 72
     1
 10
-52.28765988814075
 20
11.55946517296735
 11
-51.09486718597424
 21
11.55946517296735
 72
     1
 10
-51.09486718597424
 20
11.55946517296735
 11
-51.09486718597424
 21
13.82800939065484
 72
     1
 10
-51.09486718597424
 20
13.82800939065484
 11
-50.28376814850174
 21
13.82800939065484
 72
     1
 10
-50.28376814850174
 20
13.82800939065484
 11
-50.28376814850174
 21
14.61327469677843
 97
        8
330
34A
330
38A
330
349
330
38B
330
38C
330
34D
330
34C
330
34B
 75
     1
 76
     0
 52
45.0
 41
0.1
 77
     0
 78
     1
 53
45.0
 43
0.0
 44
0.0
 45
-0.0707106781186548
 46
0.0707106781186548
 79
     0
 98
        1
 10
0.0
 20
0.0
  0
HATCH
  5
410
330
71
100
AcDbEntity
  8
1
  6
Continuous
 62
     2
100
AcDbHatch
 10
0.0
 20
0.0
 30
0.0
210
0.0
220
0.0
230
1.0
  2
_USER
 70
     0
 71
     1
 91
        2
 92
        1
 93
        8
 72
     1
 10
-48.14534069255475
 20
11.55946517296735
 11
-48.35682074603054
 21
12.10042571718523
 72
     1
 10
-48.35682074603054
 20
12.10042571718523
 11
-49.48926232270435
 21
12.10042571718523
 72
     1
 10
-49.48926232270435
 20
12.10042571718523
 11
-49.70074237618016
 21
11.55946517296735
 72
     1
 10
-49.70074237618016
 20
11.55946517296735
 11
-50.94124678643314
 21
11.55946517296735
 72
     1
 10
-50.94124678643314
 20
11.55946517296735
 11
-49.54329373949383
 21
14.61327469677843
 72
     1
 10
-49.54329373949383
 20
14.61327469677843
 11
-48.30278932924114
 21
14.61327469677843
 72
     1
 10
-48.30278932924114
 20
14.61327469677843
 11
-46.90483628230084
 21
11.55946517296735
 72
     1
 10
-46.90483628230084
 20
11.55946517296735
 11
-48.14534069255475
 21
11.55946517296735
 97
        8
330
38E
330
38F
330
346
330
390
330
345
330
348
330
38D
330
347
 92
       16
 93
        3
 72
     1
 10
-49.22320677155935
 20
12.78098898249183
 11
-48.92304153436695
 21
13.54880394847854
 72
     1
 10
-48.92304153436695
 20
13.54880394847854
 11
-48.62287629717685
 21
12.78098898249183
 72
     1
 10
-48.62287629717685
 20
12.78098898249183
 11
-49.22320677155935
 21
12.78098898249183
 97
        3
330
344
330
392
330
391
 75
     1
 76
     0
 52
45.0
 41
0.1
 77
     0
 78
     1
 53
45.0
 43
0.0
 44
0.0
 45
-0.0707106781186548
 46
0.0707106781186548
 79
     0
 98
        1
 10
0.0
 20
0.0
  0
HATCH
  5
411
330
71
100
AcDbEntity
  8
1
  6
Continuous
 62
     2
100
AcDbHatch
 10
0.0
 20
0.0
 30
0.0
210
0.0
220
0.0
230
1.0
  2
_USER
 70
     0
 71
     1
 91
        2
 92
        1
 93
        8
 72
     1
 10
-48.14534069255475
 20
11.55946517296735
 11
-48.35682074603054
 21
12.10042571718523
 72
     1
 10
-48.35682074603054
 20
12.10042571718523
 11
-49.48926232270435
 21
12.10042571718523
 72
     1
 10
-49.48926232270435
 20
12.10042571718523
 11
-49.70074237618016
 21
11.55946517296735
 72
     1
 10
-49.70074237618016
 20
11.55946517296735
 11
-50.94124678643314
 21
11.55946517296735
 72
     1
 10
-50.94124678643314
 20
11.55946517296735
 11
-49.54329373949383
 21
14.61327469677843
 72
     1
 10
-49.54329373949383
 20
14.61327469677843
 11
-48.30278932924114
 21
14.61327469677843
 72
     1
 10
-48.30278932924114
 20
14.61327469677843
 11
-46.90483628230084
 21
11.55946517296735
 72
     1
 10
-46.90483628230084
 20
11.55946517296735
 11
-48.14534069255475
 21
11.55946517296735
 97
        8
330
38E
330
38F
330
346
330
390
330
345
330
348
330
38D
330
347
 92
       16
 93
        3
 72
     1
 10
-49.22320677155935
 20
12.78098898249183
 11
-48.92304153436695
 21
13.54880394847854
 72
     1
 10
-48.92304153436695
 20
13.54880394847854
 11
-48.62287629717685
 21
12.78098898249183
 72
     1
 10
-48.62287629717685
 20
12.78098898249183
 11
-49.22320677155935
 21
12.78098898249183
 97
        3
330
344
330
392
330
391
 75
     1
 76
     0
 52
45.0
 41
0.1
 77
     0
 78
     1
 53
45.0
 43
0.0
 44
0.0
 45
-0.0707106781186548
 46
0.0707106781186548
 79
     0
 98
        1
 10
0.0
 20
0.0
  0
HATCH
  5
412
330
71
100
AcDbEntity
  8
1
  6
Continuous
 62
     2
100
AcDbHatch
 10
0.0
 20
0.0
 30
0.0
210
0.0
220
0.0
230
1.0
  2
_USER
 70
     0
 71
     1
 91
        1
 92
        1
 93
        4
 72
     1
 10
-46.51439227876884
 20
14.91865564914164
 11
-47.75489668902173
 21
14.91865564914164
 72
     1
 10
-47.75489668902173
 20
14.91865564914164
 11
-47.75489668902173
 21
17.97246517295284
 72
     1
 10
-47.75489668902173
 20
17.97246517295284
 11
-46.51439227876884
 21
17.97246517295284
 72
     1
 10
-46.51439227876884
 20
17.97246517295284
 11
-46.51439227876884
 21
14.91865564914164
 97
        4
330
341
330
343
330
393
330
342
 75
     1
 76
     0
 52
45.0
 41
0.1
 77
     0
 78
     1
 53
45.0
 43
0.0
 44
0.0
 45
-0.0707106781186548
 46
0.0707106781186548
 79
     0
 98
        1
 10
0.0
 20
0.0
  0
HATCH
  5
413
330
71
100
AcDbEntity
  8
1
  6
Continuous
 62
     2
100
AcDbHatch
 10
0.0
 20
0.0
 30
0.0
210
0.0
220
0.0
230
1.0
  2
_USER
 70
     0
 71
     1
 91
        1
 92
        1
 93
        4
 72
     1
 10
-46.51439227876884
 20
14.91865564914164
 11
-47.75489668902173
 21
14.91865564914164
 72
     1
 10
-47.75489668902173
 20
14.91865564914164
 11
-47.75489668902173
 21
17.97246517295284
 72
     1
 10
-47.75489668902173
 20
17.97246517295284
 11
-46.51439227876884
 21
17.97246517295284
 72
     1
 10
-46.51439227876884
 20
17.97246517295284
 11
-46.51439227876884
 21
14.91865564914164
 97
        4
330
341
330
343
330
393
330
342
 75
     1
 76
     0
 52
45.0
 41
0.1
 77
     0
 78
     1
 53
45.0
 43
0.0
 44
0.0
 45
-0.0707106781186548
 46
0.0707106781186548
 79
     0
 98
        1
 10
0.0
 20
0.0
  0
HATCH
  5
414
330
71
100
AcDbEntity
  8
1
  6
Continuous
 62
     2
100
AcDbHatch
 10
0.0
 20
0.0
 30
0.0
210
0.0
220
0.0
230
1.0
  2
_USER
 70
     0
 71
     1
 91
        1
 92
        1
 93
       12
 72
     1
 10
-42.29190611309804
 20
17.97246517295284
 11
-43.59443574386455
 21
16.49951464291664
 72
     1
 10
-43.59443574386455
 20
16.49951464291664
 11
-42.19648269692425
 21
14.91865564914164
 72
     1
 10
-42.19648269692425
 20
14.91865564914164
 11
-43.59920691467255
 21
14.91865564914164
 72
     1
 10
-43.59920691467255
 20
14.91865564914164
 11
-44.29579785273805
 21
15.70638743443536
 72
     1
 10
-44.29579785273805
 20
15.70638743443536
 11
-44.99238879080374
 21
14.91865564914164
 72
     1
 10
-44.99238879080374
 20
14.91865564914164
 11
-46.39511300855196
 21
14.91865564914164
 72
     1
 10
-46.39511300855196
 20
14.91865564914164
 11
-44.99715996161166
 21
16.49951464291664
 72
     1
 10
-44.99715996161166
 20
16.49951464291664
 11
-46.29968959237914
 21
17.97246517295284
 72
     1
 10
-46.29968959237914
 20
17.97246517295284
 11
-44.89696537462984
 21
17.97246517295284
 72
     1
 10
-44.89696537462984
 20
17.97246517295284
 11
-44.29579785273805
 21
17.29264185139735
 72
     1
 10
-44.29579785273805
 20
17.29264185139735
 11
-43.69463033084526
 21
17.97246517295284
 72
     1
 10
-43.69463033084526
 20
17.97246517295284
 11
-42.29190611309804
 21
17.97246517295284
 97
       12
330
33C
330
33B
330
33A
330
397
330
398
330
394
330
395
330
340
330
33F
330
33E
330
33D
330
396
 75
     1
 76
     0
 52
45.0
 41
0.1
 77
     0
 78
     1
 53
45.0
 43
0.0
 44
0.0
 45
-0.0707106781186548
 46
0.0707106781186548
 79
     0
 98
        1
 10
0.0
 20
0.0
  0
HATCH
  5
415
330
71
100
AcDbEntity
  8
1
  6
Continuous
 62
     2
100
AcDbHatch
 10
0.0
 20
0.0
 30
0.0
210
0.0
220
0.0
230
1.0
  2
_USER
 70
     0
 71
     1
 91
        1
 92
        1
 93
       12
 72
     1
 10
-42.29190611309804
 20
17.97246517295284
 11
-43.59443574386455
 21
16.49951464291664
 72
     1
 10
-43.59443574386455
 20
16.49951464291664
 11
-42.19648269692425
 21
14.91865564914164
 72
     1
 10
-42.19648269692425
 20
14.91865564914164
 11
-43.59920691467255
 21
14.91865564914164
 72
     1
 10
-43.59920691467255
 20
14.91865564914164
 11
-44.29579785273805
 21
15.70638743443536
 72
     1
 10
-44.29579785273805
 20
15.70638743443536
 11
-44.99238879080374
 21
14.91865564914164
 72
     1
 10
-44.99238879080374
 20
14.91865564914164
 11
-46.39511300855196
 21
14.91865564914164
 72
     1
 10
-46.39511300855196
 20
14.91865564914164
 11
-44.99715996161166
 21
16.49951464291664
 72
     1
 10
-44.99715996161166
 20
16.49951464291664
 11
-46.29968959237914
 21
17.97246517295284
 72
     1
 10
-46.29968959237914
 20
17.97246517295284
 11
-44.89696537462984
 21
17.97246517295284
 72
     1
 10
-44.89696537462984
 20
17.97246517295284
 11
-44.29579785273805
 21
17.29264185139735
 72
     1
 10
-44.29579785273805
 20
17.29264185139735
 11
-43.69463033084526
 21
17.97246517295284
 72
     1
 10
-43.69463033084526
 20
17.97246517295284
 11
-42.29190611309804
 21
17.97246517295284
 97
       12
330
33C
330
33B
330
33A
330
397
330
398
330
394
330
395
330
340
330
33F
330
33E
330
33D
330
396
 75
     1
 76
     0
 52
45.0
 41
0.1
 77
     0
 78
     1
 53
45.0
 43
0.0
 44
0.0
 45
-0.0707106781186548
 46
0.0707106781186548
 79
     0
 98
        1
 10
0.0
 20
0.0
  0
HATCH
  5
416
330
71
100
AcDbEntity
  8
1
  6
Continuous
 62
     2
100
AcDbHatch
 10
0.0
 20
0.0
 30
0.0
210
0.0
220
0.0
230
1.0
  2
_USER
 70
     0
 71
     1
 91
        2
 92
        1
 93
        6
 72
     1
 10
-61.30964152724405
 20
15.86173389028545
 11
-62.06840911502434
 21
15.86173389028545
 72
     1
 10
-62.06840911502434
 20
15.86173389028545
 11
-62.06840911502434
 21
14.91865564914164
 72
     1
 10
-62.06840911502434
 20
14.91865564914164
 11
-63.30891352527846
 21
14.91865564914164
 72
     1
 10
-63.30891352527846
 20
14.91865564914164
 11
-63.30891352527846
 21
17.97246517295284
 72
     1
 10
-63.30891352527846
 20
17.97246517295284
 11
-61.30964152724405
 21
17.97246517295284
 72
     2
 10
-61.30964152724405
 20
16.91709953161916
 40
1.055365641333712
 50
270.0
 51
450.0
 73
     0
 97
        6
330
364
330
363
330
370
330
36F
330
365
330
3B5
 92
       16
 93
        4
 72
     2
 10
-61.75111405348244
 20
16.95649550284165
 40
0.3528638246711218
 50
270.0
 51
450.0
 73
     1
 72
     1
 10
-61.75111405348244
 20
17.30935932751274
 11
-62.06840911502434
 21
17.30935932751274
 72
     1
 10
-62.06840911502434
 20
17.30935932751274
 11
-62.06840911502434
 21
16.60363167817053
 72
     1
 10
-62.06840911502434
 20
16.60363167817053
 11
-61.75111405348244
 21
16.60363167817053
 97
        4
330
3C9
330
361
330
371
330
362
 75
     1
 76
     0
 52
45.0
 41
0.1
 77
     0
 78
     1
 53
45.0
 43
0.0
 44
0.0
 45
-0.0707106781186548
 46
0.0707106781186548
 79
     0
 98
        1
 10
0.0
 20
0.0
  0
HATCH
  5
417
330
71
100
AcDbEntity
  8
1
  6
Continuous
 62
     2
100
AcDbHatch
 10
0.0
 20
0.0
 30
0.0
210
0.0
220
0.0
230
1.0
  2
_USER
 70
     0
 71
     1
 91
        2
 92
        1
 93
        6
 72
     1
 10
-61.30964152724405
 20
15.86173389028545
 11
-62.06840911502434
 21
15.86173389028545
 72
     1
 10
-62.06840911502434
 20
15.86173389028545
 11
-62.06840911502434
 21
14.91865564914164
 72
     1
 10
-62.06840911502434
 20
14.91865564914164
 11
-63.30891352527846
 21
14.91865564914164
 72
     1
 10
-63.30891352527846
 20
14.91865564914164
 11
-63.30891352527846
 21
17.97246517295284
 72
     1
 10
-63.30891352527846
 20
17.97246517295284
 11
-61.30964152724405
 21
17.97246517295284
 72
     2
 10
-61.30964152724405
 20
16.91709953161916
 40
1.055365641333712
 50
270.0
 51
450.0
 73
     0
 97
        6
330
364
330
363
330
370
330
36F
330
365
330
3B5
 92
       16
 93
        4
 72
     2
 10
-61.75111405348244
 20
16.95649550284165
 40
0.3528638246711218
 50
270.0
 51
450.0
 73
     1
 72
     1
 10
-61.75111405348244
 20
17.30935932751274
 11
-62.06840911502434
 21
17.30935932751274
 72
     1
 10
-62.06840911502434
 20
17.30935932751274
 11
-62.06840911502434
 21
16.60363167817053
 72
     1
 10
-62.06840911502434
 20
16.60363167817053
 11
-61.75111405348244
 21
16.60363167817053
 97
        4
330
3C9
330
361
330
371
330
362
 75
     1
 76
     0
 52
45.0
 41
0.1
 77
     0
 78
     1
 53
45.0
 43
0.0
 44
0.0
 45
-0.0707106781186548
 46
0.0707106781186548
 79
     0
 98
        1
 10
0.0
 20
0.0
  0
HATCH
  5
418
330
71
100
AcDbEntity
  8
1
  6
Continuous
 62
     2
100
AcDbHatch
 10
0.0
 20
0.0
 30
0.0
210
0.0
220
0.0
230
1.0
  2
_USER
 70
     0
 71
     1
 91
        2
 92
        1
 93
        4
 72
     2
 10
-58.75309877888495
 20
12.54779492456984
 40
2.065479772208574
 50
62.45185182430646
 51
117.5481481756661
 73
     1
 72
     2
 10
-59.03403867071825
 20
13.08636993487264
 40
1.458034083651485
 50
117.5481481756619
 51
242.451851824338
 73
     1
 72
     2
 10
-58.75309877888495
 20
13.62494494517594
 40
2.065479772208502
 50
242.4518518243403
 51
297.5481481756871
 73
     1
 72
     2
 10
-58.47215888705165
 20
13.08636993487264
 40
1.458034083652003
 50
297.548148175701
 51
422.451851824299
 73
     1
 97
        4
330
3C1
330
3C0
330
3C2
330
3BF
 92
       16
 93
        4
 72
     2
 10
-58.95283881523136
 20
13.08636993487264
 40
0.7717997786796947
 50
321.8795802028417
 51
398.120419797153
 73
     1
 72
     2
 10
-58.75309877888495
 20
13.24310111299315
 40
0.5179085730132965
 50
38.12041979714657
 51
141.8795802028592
 73
     1
 72
     2
 10
-58.55335874253885
 20
13.08636993487264
 40
0.771799778679461
 50
141.8795802028365
 51
218.1204197971687
 73
     1
 72
     2
 10
-58.75309877888495
 20
12.92963875675264
 40
0.5179085730137343
 50
218.120419797193
 51
321.8795802028012
 73
     1
 97
        4
330
3DD
330
3DA
330
3DB
330
3DC
 75
     1
 76
     0
 52
45.0
 41
0.1
 77
     0
 78
     1
 53
45.0
 43
0.0
 44
0.0
 45
-0.0707106781186548
 46
0.0707106781186548
 79
     0
 98
        1
 10
0.0
 20
0.0
  0
HATCH
  5
419
330
71
100
AcDbEntity
  8
1
  6
Continuous
 62
     2
100
AcDbHatch
 10
0.0
 20
0.0
 30
0.0
210
0.0
220
0.0
230
1.0
  2
_USER
 70
     0
 71
     1
 91
        2
 92
        1
 93
        4
 72
     2
 10
-58.75309877888495
 20
12.54779492456984
 40
2.065479772208574
 50
62.45185182430646
 51
117.5481481756661
 73
     1
 72
     2
 10
-59.03403867071825
 20
13.08636993487264
 40
1.458034083651485
 50
117.5481481756619
 51
242.451851824338
 73
     1
 72
     2
 10
-58.75309877888495
 20
13.62494494517594
 40
2.065479772208502
 50
242.4518518243403
 51
297.5481481756871
 73
     1
 72
     2
 10
-58.47215888705165
 20
13.08636993487264
 40
1.458034083652003
 50
297.548148175701
 51
422.451851824299
 73
     1
 97
        4
330
3C1
330
3C0
330
3C2
330
3BF
 92
       16
 93
        4
 72
     2
 10
-58.95283881523136
 20
13.08636993487264
 40
0.7717997786796947
 50
321.8795802028417
 51
398.120419797153
 73
     1
 72
     2
 10
-58.75309877888495
 20
13.24310111299315
 40
0.5179085730132965
 50
38.12041979714657
 51
141.8795802028592
 73
     1
 72
     2
 10
-58.55335874253885
 20
13.08636993487264
 40
0.771799778679461
 50
141.8795802028365
 51
218.1204197971687
 73
     1
 72
     2
 10
-58.75309877888495
 20
12.92963875675264
 40
0.5179085730137343
 50
218.120419797193
 51
321.8795802028012
 73
     1
 97
        4
330
3DD
330
3DA
330
3DB
330
3DC
 75
     1
 76
     0
 52
45.0
 41
0.1
 77
     0
 78
     1
 53
45.0
 43
0.0
 44
0.0
 45
-0.0707106781186548
 46
0.0707106781186548
 79
     0
 98
        1
 10
0.0
 20
0.0
  0
HATCH
  5
41A
330
71
100
AcDbEntity
  8
1
  6
Continuous
 62
     2
100
AcDbHatch
 10
0.0
 20
0.0
 30
0.0
210
0.0
220
0.0
230
1.0
  2
_USER
 70
     0
 71
     1
 91
        2
 92
        1
 93
       12
 72
     1
 10
-51.85810358447566
 20
17.27445156750986
 11
-53.19403141090334
 21
17.27445156750986
 72
     1
 10
-53.19403141090334
 20
17.27445156750986
 11
-53.19403141090334
 21
16.79456721376815
 72
     1
 10
-53.19403141090334
 20
16.79456721376815
 11
-51.85810358447566
 21
16.79456721376815
 72
     1
 10
-51.85810358447566
 20
16.79456721376815
 11
-51.85810358447566
 21
16.09655360832585
 72
     1
 10
-51.85810358447566
 20
16.09655360832585
 11
-53.19403141090334
 21
16.09655360832585
 72
     1
 10
-53.19403141090334
 20
16.09655360832585
 11
-53.19403141090334
 21
15.61666925458414
 72
     1
 10
-53.19403141090334
 20
15.61666925458414
 11
-51.85810358447566
 21
15.61666925458414
 72
     1
 10
-51.85810358447566
 20
15.61666925458414
 11
-51.85810358447566
 21
14.91865564914164
 72
     1
 10
-51.85810358447566
 20
14.91865564914164
 11
-55.00842330825665
 21
14.91865564914164
 72
     2
 10
-55.00842330825665
 20
16.44556041104696
 40
1.526904761905882
 50
90.0
 51
270.0
 73
     0
 72
     1
 10
-55.00842330825665
 20
17.97246517295284
 11
-51.85810358447566
 21
17.97246517295284
 72
     1
 10
-51.85810358447566
 20
17.97246517295284
 11
-51.85810358447566
 21
17.27445156750986
 97
       12
330
378
330
3CA
330
379
330
37A
330
37B
330
37C
330
359
330
358
330
357
330
356
330
37D
330
377
 92
       16
 93
        4
 72
     2
 10
-54.79215129809145
 20
16.60229158916744
 40
0.5179085730135231
 50
38.12041979714413
 51
141.8795802028496
 73
     1
 72
     2
 10
-54.59241126174516
 20
16.44556041104696
 40
0.7717997786796745
 50
141.8795802028402
 51
218.1204197971566
 73
     1
 72
     2
 10
-54.79215129809145
 20
16.28882923292653
 40
0.5179085730134494
 50
218.1204197971503
 51
321.879580202856
 73
     1
 72
     2
 10
-54.99189133443764
 20
16.44556041104696
 40
0.7717997786796407
 50
321.8795802028435
 51
398.1204197971597
 73
     1
 97
        4
330
3C4
330
3C3
330
3BE
330
3BD
 75
     1
 76
     0
 52
45.0
 41
0.1
 77
     0
 78
     1
 53
45.0
 43
0.0
 44
0.0
 45
-0.0707106781186548
 46
0.0707106781186548
 79
     0
 98
        1
 10
0.0
 20
0.0
  0
HATCH
  5
41B
330
71
100
AcDbEntity
  8
1
  6
Continuous
 62
     2
100
AcDbHatch
 10
0.0
 20
0.0
 30
0.0
210
0.0
220
0.0
230
1.0
  2
_USER
 70
     0
 71
     1
 91
        2
 92
        1
 93
       12
 72
     1
 10
-51.85810358447566
 20
17.27445156750986
 11
-53.19403141090334
 21
17.27445156750986
 72
     1
 10
-53.19403141090334
 20
17.27445156750986
 11
-53.19403141090334
 21
16.79456721376815
 72
     1
 10
-53.19403141090334
 20
16.79456721376815
 11
-51.85810358447566
 21
16.79456721376815
 72
     1
 10
-51.85810358447566
 20
16.79456721376815
 11
-51.85810358447566
 21
16.09655360832585
 72
     1
 10
-51.85810358447566
 20
16.09655360832585
 11
-53.19403141090334
 21
16.09655360832585
 72
     1
 10
-53.19403141090334
 20
16.09655360832585
 11
-53.19403141090334
 21
15.61666925458414
 72
     1
 10
-53.19403141090334
 20
15.61666925458414
 11
-51.85810358447566
 21
15.61666925458414
 72
     1
 10
-51.85810358447566
 20
15.61666925458414
 11
-51.85810358447566
 21
14.91865564914164
 72
     1
 10
-51.85810358447566
 20
14.91865564914164
 11
-55.00842330825665
 21
14.91865564914164
 72
     2
 10
-55.00842330825665
 20
16.44556041104696
 40
1.526904761905882
 50
90.0
 51
270.0
 73
     0
 72
     1
 10
-55.00842330825665
 20
17.97246517295284
 11
-51.85810358447566
 21
17.97246517295284
 72
     1
 10
-51.85810358447566
 20
17.97246517295284
 11
-51.85810358447566
 21
17.27445156750986
 97
       12
330
378
330
3CA
330
379
330
37A
330
37B
330
37C
330
359
330
358
330
357
330
356
330
37D
330
377
 92
       16
 93
        4
 72
     2
 10
-54.79215129809145
 20
16.60229158916744
 40
0.5179085730135231
 50
38.12041979714413
 51
141.8795802028496
 73
     1
 72
     2
 10
-54.59241126174516
 20
16.44556041104696
 40
0.7717997786796745
 50
141.8795802028402
 51
218.1204197971566
 73
     1
 72
     2
 10
-54.79215129809145
 20
16.28882923292653
 40
0.5179085730134494
 50
218.1204197971503
 51
321.879580202856
 73
     1
 72
     2
 10
-54.99189133443764
 20
16.44556041104696
 40
0.7717997786796407
 50
321.8795802028435
 51
398.1204197971597
 73
     1
 97
        4
330
3C4
330
3C3
330
3BE
330
3BD
 75
     1
 76
     0
 52
45.0
 41
0.1
 77
     0
 78
     1
 53
45.0
 43
0.0
 44
0.0
 45
-0.0707106781186548
 46
0.0707106781186548
 79
     0
 98
        1
 10
0.0
 20
0.0
  0
HATCH
  5
41C
330
71
100
AcDbEntity
  8
1
  6
Continuous
 62
     2
100
AcDbHatch
 10
0.0
 20
0.0
 30
0.0
210
0.0
220
0.0
230
1.0
  2
_USER
 70
     0
 71
     1
 91
        4
 92
        1
 93
        8
 72
     1
 10
-63.78603060614526
 20
17.54822055755085
 11
-63.78603060614526
 21
11.98370978835064
 72
     2
 10
-64.21027522152914
 20
11.98370978835064
 40
0.4242446153832891
 50
0.0
 51
90.0
 73
     0
 72
     1
 10
-64.21027522152914
 20
11.55946517296735
 11
-69.68358731224595
 21
11.55946517296735
 72
     2
 10
-69.68358731224595
 20
11.98370978835064
 40
0.4242446153828041
 50
90.0
 51
180.0
 73
     0
 72
     1
 10
-70.10783192762875
 20
11.98370978835064
 11
-70.10783192762875
 21
17.54822055755085
 72
     2
 10
-69.68358731224595
 20
17.54822055755085
 40
0.4242446153838024
 50
180.0
 51
270.0
 73
     0
 72
     1
 10
-69.68358731224595
 20
17.97246517293465
 11
-64.21027522152914
 21
17.97246517293465
 72
     2
 10
-64.21027522152914
 20
17.54822055755085
 40
0.4242446153838841
 50
270.0
 51
360.0
 73
     0
 97
        8
330
36C
330
3BA
330
36D
330
3C5
330
36A
330
3BC
330
36B
330
3BB
 92
       16
 93
        1
 72
     2
 10
-67.06400166172844
 20
15.22933832919534
 40
0.4709789327785074
 50
0.0
 51
360.0
 73
     1
 97
        1
330
3E0
 92
       16
 93
        8
 72
     2
 10
-66.51414394896776
 20
14.12019672922693
 40
0.3157169230765344
 50
115.3740086783517
 51
180.0
 73
     1
 72
     1
 10
-66.82986087204455
 20
14.12019672922693
 11
-66.82986087204455
 21
13.53834532253185
 72
     2
 10
-66.51414394896776
 20
13.53834532253185
 40
0.315716923076792
 50
180.0
 51
269.8110329574542
 73
     1
 72
     2
 10
-66.50852781365774
 20
15.24118027010084
 40
2.018561131933266
 50
269.8110329575858
 51
450.1889670424142
 73
     1
 72
     2
 10
-66.51414394896776
 20
16.94401521766994
 40
0.3157169230760746
 50
90.18896704254594
 51
180.0
 73
     1
 72
     1
 10
-66.82986087204455
 20
16.94401521766994
 11
-66.82986087204455
 21
16.33847992916316
 72
     2
 10
-66.51414394896776
 20
16.33847992916316
 40
0.315716923076792
 50
180.0
 51
244.6259913216482
 73
     1
 72
     2
 10
-67.04018664705563
 20
15.22933832919534
 40
0.9118481501444573
 50
295.3740086781924
 51
424.6259913218234
 73
     0
 97
        8
330
3D2
330
333
330
3CF
330
3D0
330
3AE
330
332
330
3D1
330
3AD
 92
       16
 93
       12
 72
     2
 10
-69.08969263549946
 20
12.58773765160095
 40
0.3157169230756836
 50
180.0
 51
270.0
 73
     1
 72
     1
 10
-69.08969263549946
 20
12.27202072852424
 11
-67.61385937448983
 21
12.27202072852424
 72
     2
 10
-67.61385937448983
 20
12.58773765160095
 40
0.3157169230767103
 50
270.0
 51
360.0
 73
     1
 72
     1
 10
-67.29814245141324
 20
12.58773765160095
 11
-67.29814245141324
 21
14.11850858313255
 72
     2
 10
-67.61385937448983
 20
14.11850858313255
 40
0.315716923076593
 50
0.0
 51
64.80558935146027
 73
     1
 72
     2
 10
-67.09127492691485
 20
15.22933832919534
 40
0.911897523557621
 50
115.1944106485123
 51
244.805589351472
 73
     0
 72
     2
 10
-67.61385937448983
 20
16.34016807525754
 40
0.3157169230761203
 50
295.1944106485397
 51
360.0
 73
     1
 72
     1
 10
-67.29814245141324
 20
16.34016807525754
 11
-67.29814245141324
 21
16.94419269431805
 72
     2
 10
-67.61385937448983
 20
16.94419269431805
 40
0.315716923076593
 50
0.0
 51
90.0
 73
     1
 72
     1
 10
-67.61385937448983
 20
17.25990961739424
 11
-69.08969263549946
 21
17.25990961739424
 72
     2
 10
-69.08969263549946
 20
16.94419269431805
 40
0.315716923076188
 50
90.0
 51
180.0
 73
     1
 72
     1
 10
-69.40540955857514
 20
16.94419269431805
 11
-69.40540955857514
 21
12.58773765160095
 97
       12
330
3B6
330
36E
330
3B9
330
369
330
3C6
330
3C7
330
3B8
330
368
330
3B7
330
367
330
3C8
330
366
 75
     1
 76
     0
 52
45.0
 41
0.1
 77
     0
 78
     1
 53
45.0
 43
0.0
 44
0.0
 45
-0.0707106781186548
 46
0.0707106781186548
 79
     0
 98
        1
 10
0.0
 20
0.0
  0
HATCH
  5
41D
330
71
100
AcDbEntity
  8
1
  6
Continuous
 62
     2
100
AcDbHatch
 10
0.0
 20
0.0
 30
0.0
210
0.0
220
0.0
230
1.0
  2
_USER
 70
     0
 71
     1
 91
        4
 92
        1
 93
        8
 72
     1
 10
-63.78603060614526
 20
17.54822055755085
 11
-63.78603060614526
 21
11.98370978835064
 72
     2
 10
-64.21027522152914
 20
11.98370978835064
 40
0.4242446153832891
 50
0.0
 51
90.0
 73
     0
 72
     1
 10
-64.21027522152914
 20
11.55946517296735
 11
-69.68358731224595
 21
11.55946517296735
 72
     2
 10
-69.68358731224595
 20
11.98370978835064
 40
0.4242446153828041
 50
90.0
 51
180.0
 73
     0
 72
     1
 10
-70.10783192762875
 20
11.98370978835064
 11
-70.10783192762875
 21
17.54822055755085
 72
     2
 10
-69.68358731224595
 20
17.54822055755085
 40
0.4242446153838024
 50
180.0
 51
270.0
 73
     0
 72
     1
 10
-69.68358731224595
 20
17.97246517293465
 11
-64.21027522152914
 21
17.97246517293465
 72
     2
 10
-64.21027522152914
 20
17.54822055755085
 40
0.4242446153838841
 50
270.0
 51
360.0
 73
     0
 97
        8
330
36C
330
3BA
330
36D
330
3C5
330
36A
330
3BC
330
36B
330
3BB
 92
       16
 93
        1
 72
     2
 10
-67.06400166172844
 20
15.22933832919534
 40
0.4709789327785074
 50
0.0
 51
360.0
 73
     1
 97
        1
330
3E0
 92
       16
 93
        8
 72
     2
 10
-66.51414394896776
 20
14.12019672922693
 40
0.3157169230765344
 50
115.3740086783517
 51
180.0
 73
     1
 72
     1
 10
-66.82986087204455
 20
14.12019672922693
 11
-66.82986087204455
 21
13.53834532253185
 72
     2
 10
-66.51414394896776
 20
13.53834532253185
 40
0.315716923076792
 50
180.0
 51
269.8110329574542
 73
     1
 72
     2
 10
-66.50852781365774
 20
15.24118027010084
 40
2.018561131933266
 50
269.8110329575858
 51
450.1889670424142
 73
     1
 72
     2
 10
-66.51414394896776
 20
16.94401521766994
 40
0.3157169230760746
 50
90.18896704254594
 51
180.0
 73
     1
 72
     1
 10
-66.82986087204455
 20
16.94401521766994
 11
-66.82986087204455
 21
16.33847992916316
 72
     2
 10
-66.51414394896776
 20
16.33847992916316
 40
0.315716923076792
 50
180.0
 51
244.6259913216482
 73
     1
 72
     2
 10
-67.04018664705563
 20
15.22933832919534
 40
0.9118481501444573
 50
295.3740086781924
 51
424.6259913218234
 73
     0
 97
        8
330
3D2
330
333
330
3CF
330
3D0
330
3AE
330
332
330
3D1
330
3AD
 92
       16
 93
       12
 72
     2
 10
-69.08969263549946
 20
12.58773765160095
 40
0.3157169230756836
 50
180.0
 51
270.0
 73
     1
 72
     1
 10
-69.08969263549946
 20
12.27202072852424
 11
-67.61385937448983
 21
12.27202072852424
 72
     2
 10
-67.61385937448983
 20
12.58773765160095
 40
0.3157169230767103
 50
270.0
 51
360.0
 73
     1
 72
     1
 10
-67.29814245141324
 20
12.58773765160095
 11
-67.29814245141324
 21
14.11850858313255
 72
     2
 10
-67.61385937448983
 20
14.11850858313255
 40
0.315716923076593
 50
0.0
 51
64.80558935146027
 73
     1
 72
     2
 10
-67.09127492691485
 20
15.22933832919534
 40
0.911897523557621
 50
115.1944106485123
 51
244.805589351472
 73
     0
 72
     2
 10
-67.61385937448983
 20
16.34016807525754
 40
0.3157169230761203
 50
295.1944106485397
 51
360.0
 73
     1
 72
     1
 10
-67.29814245141324
 20
16.34016807525754
 11
-67.29814245141324
 21
16.94419269431805
 72
     2
 10
-67.61385937448983
 20
16.94419269431805
 40
0.315716923076593
 50
0.0
 51
90.0
 73
     1
 72
     1
 10
-67.61385937448983
 20
17.25990961739424
 11
-69.08969263549946
 21
17.25990961739424
 72
     2
 10
-69.08969263549946
 20
16.94419269431805
 40
0.315716923076188
 50
90.0
 51
180.0
 73
     1
 72
     1
 10
-69.40540955857514
 20
16.94419269431805
 11
-69.40540955857514
 21
12.58773765160095
 97
       12
330
3B6
330
36E
330
3B9
330
369
330
3C6
330
3C7
330
3B8
330
368
330
3B7
330
367
330
3C8
330
366
 75
     1
 76
     0
 52
45.0
 41
0.1
 77
     0
 78
     1
 53
45.0
 43
0.0
 44
0.0
 45
-0.0707106781186548
 46
0.0707106781186548
 79
     0
 98
        1
 10
0.0
 20
0.0
  0
HATCH
  5
41E
330
71
100
AcDbEntity
  8
1
  6
Continuous
 62
     2
100
AcDbHatch
 10
0.0
 20
0.0
 30
0.0
210
0.0
220
0.0
230
1.0
  2
_USER
 70
     0
 71
     1
 91
        1
 92
        1
 93
       18
 72
     1
 10
-42.19648269692425
 20
13.82800939065484
 11
-43.00758173439763
 21
13.82800939065484
 72
     1
 10
-43.00758173439763
 20
13.82800939065484
 11
-43.00758173439763
 21
11.55946517296735
 72
     1
 10
-43.00758173439763
 20
11.55946517296735
 11
-44.20037443656534
 21
11.55946517296735
 72
     1
 10
-44.20037443656534
 20
11.55946517296735
 11
-44.20037443656534
 21
13.82800939065484
 72
     1
 10
-44.20037443656534
 20
13.82800939065484
 11
-45.30401373613344
 21
13.82800939065484
 72
     2
 10
-45.30401373613344
 20
12.87348638382875
 40
0.9545230068260899
 50
90.0
 51
109.337143219432
 73
     1
 72
     2
 10
-45.45068373423715
 20
13.29144136421164
 40
0.5115800601944086
 50
109.3371432194847
 51
151.4785267424222
 73
     1
 72
     2
 10
-45.07332647615576
 20
13.08636993487264
 40
0.9410597353348853
 50
151.4785267423623
 51
208.5214732576697
 73
     1
 72
     2
 10
-45.45068373423715
 20
12.88129850553415
 40
0.5115800601960153
 50
208.521473257687
 51
246.6277221118459
 73
     1
 72
     2
 10
-45.29424370153404
 20
13.24329052424415
 40
0.9059297849852865
 50
246.6277221118184
 51
288.4480761180811
 73
     1
 72
     2
 10
-45.71241143519595
 20
14.49683630028073
 40
2.227384008972746
 50
288.4480761181335
 51
301.9309089499399
 73
     1
 72
     1
 10
-44.53435639317203
 20
12.60648558113095
 11
-44.53435639317203
 21
11.73396857432763
 72
     2
 10
-45.87028431028875
 20
16.39905088012904
 40
4.852596863498823
 50
74.02000874166129
 51
84.84185523036365
 73
     0
 72
     2
 10
-45.58142821555293
 20
13.19916029690745
 40
1.639695123940456
 50
84.8418552303238
 51
164.9381082228988
 73
     0
 72
     2
 10
-46.00055605901454
 20
13.08636993487264
 40
1.205656168393009
 50
164.9381082229039
 51
195.061891777097
 73
     0
 72
     2
 10
-45.58142821555293
 20
12.97357957283774
 40
1.639695123940209
 50
195.0618917771049
 51
270.0
 73
     0
 72
     1
 10
-45.58142821555293
 20
14.61327469677795
 11
-42.19648269692425
 21
14.61327469677843
 72
     1
 10
-42.19648269692425
 20
14.61327469677843
 11
-42.19648269692425
 21
13.82800939065484
 97
       18
330
335
330
3CB
330
3CC
330
3B4
330
3B3
330
399
330
3B2
330
3B1
330
3CD
330
3B0
330
3CE
330
3AF
330
39A
330
334
330
339
330
338
330
337
330
336
 75
     1
 76
     0
 52
45.0
 41
0.1
 77
     0
 78
     1
 53
45.0
 43
0.0
 44
0.0
 45
-0.0707106781186548
 46
0.0707106781186548
 79
     0
 98
        1
 10
0.0
 20
0.0
  0
HATCH
  5
41F
330
71
100
AcDbEntity
  8
1
  6
Continuous
 62
     2
100
AcDbHatch
 10
0.0
 20
0.0
 30
0.0
210
0.0
220
0.0
230
1.0
  2
_USER
 70
     0
 71
     1
 91
        1
 92
        1
 93
       18
 72
     1
 10
-42.19648269692425
 20
13.82800939065484
 11
-43.00758173439763
 21
13.82800939065484
 72
     1
 10
-43.00758173439763
 20
13.82800939065484
 11
-43.00758173439763
 21
11.55946517296735
 72
     1
 10
-43.00758173439763
 20
11.55946517296735
 11
-44.20037443656534
 21
11.55946517296735
 72
     1
 10
-44.20037443656534
 20
11.55946517296735
 11
-44.20037443656534
 21
13.82800939065484
 72
     1
 10
-44.20037443656534
 20
13.82800939065484
 11
-45.30401373613344
 21
13.82800939065484
 72
     2
 10
-45.30401373613344
 20
12.87348638382875
 40
0.9545230068260899
 50
90.0
 51
109.337143219432
 73
     1
 72
     2
 10
-45.45068373423715
 20
13.29144136421164
 40
0.5115800601944086
 50
109.3371432194847
 51
151.4785267424222
 73
     1
 72
     2
 10
-45.07332647615576
 20
13.08636993487264
 40
0.9410597353348853
 50
151.4785267423623
 51
208.5214732576697
 73
     1
 72
     2
 10
-45.45068373423715
 20
12.88129850553415
 40
0.5115800601960153
 50
208.521473257687
 51
246.6277221118459
 73
     1
 72
     2
 10
-45.29424370153404
 20
13.24329052424415
 40
0.9059297849852865
 50
246.6277221118184
 51
288.4480761180811
 73
     1
 72
     2
 10
-45.71241143519595
 20
14.49683630028073
 40
2.227384008972746
 50
288.4480761181335
 51
301.9309089499399
 73
     1
 72
     1
 10
-44.53435639317203
 20
12.60648558113095
 11
-44.53435639317203
 21
11.73396857432763
 72
     2
 10
-45.87028431028875
 20
16.39905088012904
 40
4.852596863498823
 50
74.02000874166129
 51
84.84185523036365
 73
     0
 72
     2
 10
-45.58142821555293
 20
13.19916029690745
 40
1.639695123940456
 50
84.8418552303238
 51
164.9381082228988
 73
     0
 72
     2
 10
-46.00055605901454
 20
13.08636993487264
 40
1.205656168393009
 50
164.9381082229039
 51
195.061891777097
 73
     0
 72
     2
 10
-45.58142821555293
 20
12.97357957283774
 40
1.639695123940209
 50
195.0618917771049
 51
270.0
 73
     0
 72
     1
 10
-45.58142821555293
 20
14.61327469677795
 11
-42.19648269692425
 21
14.61327469677843
 72
     1
 10
-42.19648269692425
 20
14.61327469677843
 11
-42.19648269692425
 21
13.82800939065484
 97
       18
330
335
330
3CB
330
3CC
330
3B4
330
3B3
330
399
330
3B2
330
3B1
330
3CD
330
3B0
330
3CE
330
3AF
330
39A
330
334
330
339
330
338
330
337
330
336
 75
     1
 76
     0
 52
45.0
 41
0.1
 77
     0
 78
     1
 53
45.0
 43
0.0
 44
0.0
 45
-0.0707106781186548
 46
0.0707106781186548
 79
     0
 98
        1
 10
0.0
 20
0.0
  0
HATCH
  5
420
330
71
100
AcDbEntity
  8
1
  6
Continuous
 62
     2
100
AcDbHatch
 10
0.0
 20
0.0
 30
0.0
210
0.0
220
0.0
230
1.0
  2
_USER
 70
     0
 71
     1
 91
        1
 92
        1
 93
       14
 72
     2
 10
-61.68412969480585
 20
12.97357957283774
 40
1.639695123940505
 50
84.84185523036236
 51
164.9381082228866
 73
     1
 72
     2
 10
-62.10325753826865
 20
13.08636993487264
 40
1.205656168390943
 50
164.9381082228765
 51
195.0618917770949
 73
     1
 72
     2
 10
-61.68412969480585
 20
13.19916029690745
 40
1.639695123939387
 50
195.0618917770895
 51
275.1581447696395
 73
     1
 72
     2
 10
-61.97298578954175
 20
16.39905088012904
 40
4.852596863498134
 50
275.1581447696249
 51
285.9799912583529
 73
     1
 72
     1
 10
-60.63705787242395
 20
11.73396857432823
 11
-60.63705787242395
 21
12.60648558113144
 72
     2
 10
-61.81511291444883
 20
14.49683630028133
 40
2.227384008972739
 50
58.0690910500407
 51
71.55192388186722
 73
     0
 72
     2
 10
-61.39694518078804
 20
13.24329052424415
 40
0.9059297849849228
 50
71.55192388184167
 51
113.3722778881284
 73
     0
 72
     2
 10
-61.55338521349006
 20
12.88129850553415
 40
0.5115800601948034
 50
113.3722778881717
 51
151.4785267423044
 73
     0
 72
     2
 10
-61.17602795540975
 20
13.08636993487264
 40
0.9410597353332545
 50
151.4785267422943
 51
208.5214732577331
 73
     0
 72
     2
 10
-61.55338521349006
 20
13.29144136421164
 40
0.5115800601948685
 50
208.5214732576956
 51
246.6277221118013
 73
     0
 72
     2
 10
-61.39694518078804
 20
12.92944934550104
 40
0.9059297849853228
 50
246.6277221118714
 51
288.4480761181466
 73
     0
 72
     2
 10
-61.81511291444883
 20
11.67590356946445
 40
2.227384008973482
 50
288.4480761181328
 51
301.9309089499592
 73
     0
 72
     1
 10
-60.63705787242395
 20
13.56625428861435
 11
-60.63705787242395
 21
14.43877129541764
 72
     2
 10
-61.97298578954175
 20
9.773688989616744
 40
4.85259686349807
 50
74.02000874164739
 51
84.84185523037506
 73
     1
 97
       14
330
3D3
330
3D4
330
3D5
330
3D6
330
39B
330
3AC
330
3AB
330
3AA
330
3D7
330
3D8
330
3A9
330
3D9
330
39C
330
3A8
 75
     1
 76
     0
 52
45.0
 41
0.1
 77
     0
 78
     1
 53
45.0
 43
0.0
 44
0.0
 45
-0.0707106781186548
 46
0.0707106781186548
 79
     0
 98
        1
 10
0.0
 20
0.0
  0
HATCH
  5
421
330
71
100
AcDbEntity
  8
1
  6
Continuous
 62
     2
100
AcDbHatch
 10
0.0
 20
0.0
 30
0.0
210
0.0
220
0.0
230
1.0
  2
_USER
 70
     0
 71
     1
 91
        1
 92
        1
 93
       14
 72
     2
 10
-61.68412969480585
 20
12.97357957283774
 40
1.639695123940505
 50
84.84185523036236
 51
164.9381082228866
 73
     1
 72
     2
 10
-62.10325753826865
 20
13.08636993487264
 40
1.205656168390943
 50
164.9381082228765
 51
195.0618917770949
 73
     1
 72
     2
 10
-61.68412969480585
 20
13.19916029690745
 40
1.639695123939387
 50
195.0618917770895
 51
275.1581447696395
 73
     1
 72
     2
 10
-61.97298578954175
 20
16.39905088012904
 40
4.852596863498134
 50
275.1581447696249
 51
285.9799912583529
 73
     1
 72
     1
 10
-60.63705787242395
 20
11.73396857432823
 11
-60.63705787242395
 21
12.60648558113144
 72
     2
 10
-61.81511291444883
 20
14.49683630028133
 40
2.227384008972739
 50
58.0690910500407
 51
71.55192388186722
 73
     0
 72
     2
 10
-61.39694518078804
 20
13.24329052424415
 40
0.9059297849849228
 50
71.55192388184167
 51
113.3722778881284
 73
     0
 72
     2
 10
-61.55338521349006
 20
12.88129850553415
 40
0.5115800601948034
 50
113.3722778881717
 51
151.4785267423044
 73
     0
 72
     2
 10
-61.17602795540975
 20
13.08636993487264
 40
0.9410597353332545
 50
151.4785267422943
 51
208.5214732577331
 73
     0
 72
     2
 10
-61.55338521349006
 20
13.29144136421164
 40
0.5115800601948685
 50
208.5214732576956
 51
246.6277221118013
 73
     0
 72
     2
 10
-61.39694518078804
 20
12.92944934550104
 40
0.9059297849853228
 50
246.6277221118714
 51
288.4480761181466
 73
     0
 72
     2
 10
-61.81511291444883
 20
11.67590356946445
 40
2.227384008973482
 50
288.4480761181328
 51
301.9309089499592
 73
     0
 72
     1
 10
-60.63705787242395
 20
13.56625428861435
 11
-60.63705787242395
 21
14.43877129541764
 72
     2
 10
-61.97298578954175
 20
9.773688989616744
 40
4.85259686349807
 50
74.02000874164739
 51
84.84185523037506
 73
     1
 97
       14
330
3D3
330
3D4
330
3D5
330
3D6
330
39B
330
3AC
330
3AB
330
3AA
330
3D7
330
3D8
330
3A9
330
3D9
330
39C
330
3A8
 75
     1
 76
     0
 52
45.0
 41
0.1
 77
     0
 78
     1
 53
45.0
 43
0.0
 44
0.0
 45
-0.0707106781186548
 46
0.0707106781186548
 79
     0
 98
        1
 10
0.0
 20
0.0
  0
ENDBLK
  5
73
330
71
100
AcDbEntity
  8
0
100
AcDbBlockEnd
  0
BLOCK
  5
75
330
74
100
AcDbEntity
  8
0
100
AcDbBlockBegin
  2
_punkt
 70
     0
 10
55.20031771255866
 20
4.26596517295104
 30
0.0
  3
_punkt
  1

  0
LINE
  5
422
330
74
100
AcDbEntity
  8
1
  6
Continuous
 62
     2
100
AcDbLine
 10
55.20031771255866
 20
4.26596517295104
 30
0.0
 11
60.20031771255765
 21
4.26596517295104
 31
0.0
  0
LINE
  5
423
330
74
100
AcDbEntity
  8
1
  6
Continuous
 62
     2
100
AcDbLine
 10
55.20031771255866
 20
4.26596517295104
 30
0.0
 11
55.20031771255866
 21
-0.73403482704907
 31
0.0
  0
ENDBLK
  5
76
330
74
100
AcDbEntity
  8
0
100
AcDbBlockEnd
  0
BLOCK
  5
7A
330
77
100
AcDbEntity
  8
0
100
AcDbBlockBegin
  2
A4I_CS
 70
     0
 10
55.20031771255866
 20
-0.73403482704907
 30
0.0
  3
A4I_CS
  1

  0
INSERT
  5
78
330
77
100
AcDbEntity
  8
1
100
AcDbBlockReference
  2
_rahmen
 10
55.20031771255866
 20
-0.73403482704907
 30
0.0
  0
INSERT
  5
79
330
77
100
AcDbEntity
  8
1
100
AcDbBlockReference
  2
_punkt
 10
55.20031771255866
 20
4.26596517295104
 30
0.0
  0
ENDBLK
  5
7B
330
77
100
AcDbEntity
  8
0
100
AcDbBlockEnd
  0
BLOCK
  5
84
330
7C
100
AcDbEntity
  8
0
100
AcDbBlockBegin
  2
1
 70
     0
 10
0.0
 20
0.0
 30
0.0
  3
1
  1

  0
INSERT
  5
7D
330
7C
100
AcDbEntity
  8
0
100
AcDbBlockReference
  2
AllgSicht1
 10
12.00000000007049
 20
75.99999999993588
 30
0.0
  0
INSERT
  5
7E
330
7C
100
AcDbEntity
  8
0
100
AcDbBlockReference
  2
Drfsicht1
 10
-117.99999999992
 20
62.0
 30
0.0
  0
INSERT
  5
7F
330
7C
100
AcDbEntity
  8
0
100
AcDbBlockReference
  2
Rckans1
 10
-3.00000000008492
 20
145.9499992131687
 30
0.0
  0
INSERT
  5
80
330
7C
100
AcDbEntity
  8
0
100
AcDbBlockReference
  2
SA_Links1
 10
-58.49999999999955
 20
145.9499992131685
 30
0.0
  0
INSERT
  5
81
330
7C
100
AcDbEntity
  8
0
100
AcDbBlockReference
  2
SA_Rechts1
 10
-195.4999999999999
 20
145.9499992131687
 30
0.0
  0
INSERT
  5
82
330
7C
100
AcDbEntity
  8
0
100
AcDbBlockReference
  2
Vordans1
 10
-117.9999999999201
 20
143.9499992131685
 30
0.0
  0
INSERT
  5
83
330
7C
100
AcDbEntity
  8
0
100
AcDbBlockReference
  2
A4I_CS
 10
55.20031771255866
 20
-0.73403482704907
 30
0.0
  0
ENDBLK
  5
85
330
7C
100
AcDbEntity
  8
0
100
AcDbBlockEnd
  0
BLOCK
  5
17C
330
175
100
AcDbEntity
  8
0
100
AcDbBlockBegin
  2
*D17
 70
     1
 10
0.0
 20
0.0
 30
0.0
  3
*D17
  1

  0
LINE
  5
176
330
175
100
AcDbEntity
  8
1
  6
Continuous
 62
     2
100
AcDbLine
 10
-152.9999996183655
 20
54.49999999999996
 30
0.0
 11
-152.9999996183655
 21
69.49999999999996
 31
0.0
  0
LINE
  5
177
330
175
100
AcDbEntity
  8
1
  6
Continuous
 62
     2
100
AcDbLine
 10
-142.9999996183655
 20
54.49999999999996
 30
0.0
 11
-154.4999996183655
 21
54.49999999999996
 31
0.0
  0
LINE
  5
178
330
175
100
AcDbEntity
  8
1
  6
Continuous
 62
     2
100
AcDbLine
 10
-142.9999996183655
 20
69.49999999999996
 30
0.0
 11
-154.4999996183655
 21
69.49999999999996
 31
0.0
  0
SOLID
  5
179
330
175
100
AcDbEntity
  8
1
 62
     2
100
AcDbTrace
 10
-153.4607833599214
 20
57.99999999999996
 30
0.0
 11
-152.5392158768096
 21
57.99999999999996
 31
0.0
 12
-152.9999996183655
 22
54.49999999999996
 32
0.0
 13
-152.9999996183655
 23
54.49999999999996
 33
0.0
  0
SOLID
  5
17A
330
175
100
AcDbEntity
  8
1
 62
     2
100
AcDbTrace
 10
-152.5392158768096
 20
65.99999999999996
 30
0.0
 11
-153.4607833599214
 21
65.99999999999996
 31
0.0
 12
-152.9999996183655
 22
69.49999999999996
 32
0.0
 13
-152.9999996183655
 23
69.49999999999996
 33
0.0
  0
MTEXT
  5
17B
330
175
100
AcDbEntity
  8
1
 62
     3
100
AcDbMText
 10
-154.4999996183655
 20
59.3567124672371
 30
0.0
 40
3.5
 41
0.0
 71
     7
 72
     1
  1
15
  7
CONVERTER_11
 11
0.0
 21
1.0
 31
0.0
 73
     1
 44
0.60024009603842
  0
ENDBLK
  5
17D
330
175
100
AcDbEntity
  8
0
100
AcDbBlockEnd
  0
BLOCK
  5
2BB
330
2B4
100
AcDbEntity
  8
0
100
AcDbBlockBegin
  2
*D18
 70
     1
 10
0.0
 20
0.0
 30
0.0
  3
*D18
  1

  0
LINE
  5
2B5
330
2B4
100
AcDbEntity
  8
1
  6
Continuous
 62
     2
100
AcDbLine
 10
-160.9999996183655
 20
113.4999984740211
 30
0.0
 11
-160.9999996183655
 21
174.3999984740211
 31
0.0
  0
LINE
  5
2B6
330
2B4
100
AcDbEntity
  8
1
  6
Continuous
 62
     2
100
AcDbLine
 10
-142.9999996183655
 20
113.4999984740211
 30
0.0
 11
-162.4999996183655
 21
113.4999984740211
 31
0.0
  0
LINE
  5
2B7
330
2B4
100
AcDbEntity
  8
1
  6
Continuous
 62
     2
100
AcDbLine
 10
-120.3749996183655
 20
174.3999984740211
 30
0.0
 11
-162.4999996183655
 21
174.3999984740211
 31
0.0
  0
SOLID
  5
2B8
330
2B4
100
AcDbEntity
  8
1
 62
     2
100
AcDbTrace
 10
-161.4607833599214
 20
116.9999984740211
 30
0.0
 11
-160.5392158768096
 21
116.9999984740211
 31
0.0
 12
-160.9999996183655
 22
113.4999984740211
 32
0.0
 13
-160.9999996183655
 23
113.4999984740211
 33
0.0
  0
SOLID
  5
2B9
330
2B4
100
AcDbEntity
  8
1
 62
     2
100
AcDbTrace
 10
-160.5392158768096
 20
170.8999984740211
 30
0.0
 11
-161.4607833599214
 21
170.8999984740211
 31
0.0
 12
-160.9999996183655
 22
174.3999984740211
 32
0.0
 13
-160.9999996183655
 23
174.3999984740211
 33
0.0
  0
MTEXT
  5
2BA
330
2B4
100
AcDbEntity
  8
1
 62
     3
100
AcDbMText
 10
-162.8499996183655
 20
137.675559791641
 30
0.0
 40
3.5
 41
0.0
 71
     7
 72
     1
  1
60,9
  7
CONVERTER_11
 11
0.0
 21
1.0
 31
0.0
 73
     1
 44
0.60024009603842
  0
ENDBLK
  5
2BC
330
2B4
100
AcDbEntity
  8
0
100
AcDbBlockEnd
  0
BLOCK
  5
2C6
330
2BF
100
AcDbEntity
  8
0
100
AcDbBlockBegin
  2
*D19
 70
     1
 10
0.0
 20
0.0
 30
0.0
  3
*D19
  1

  0
LINE
  5
2C0
330
2BF
100
AcDbEntity
  8
1
  6
Continuous
 62
     2
100
AcDbLine
 10
-152.9999996183655
 20
119.7999984740211
 30
0.0
 11
-152.9999996183655
 21
174.3999984740211
 31
0.0
  0
LINE
  5
2C1
330
2BF
100
AcDbEntity
  8
1
  6
Continuous
 62
     2
100
AcDbLine
 10
-100.3999996183655
 20
119.7999984740211
 30
0.0
 11
-154.4999996183655
 21
119.7999984740211
 31
0.0
  0
LINE
  5
2C2
330
2BF
100
AcDbEntity
  8
1
  6
Continuous
 62
     2
100
AcDbLine
 10
-134.8999996183655
 20
174.3999984740211
 30
0.0
 11
-154.4999996183655
 21
174.3999984740211
 31
0.0
  0
SOLID
  5
2C3
330
2BF
100
AcDbEntity
  8
1
 62
     2
100
AcDbTrace
 10
-153.4607833599214
 20
123.2999984740211
 30
0.0
 11
-152.5392158768096
 21
123.2999984740211
 31
0.0
 12
-152.9999996183655
 22
119.7999984740211
 32
0.0
 13
-152.9999996183655
 23
119.7999984740211
 33
0.0
  0
SOLID
  5
2C4
330
2BF
100
AcDbEntity
  8
1
 62
     2
100
AcDbTrace
 10
-152.5392158768096
 20
170.8999984740211
 30
0.0
 11
-153.4607833599214
 21
170.8999984740211
 31
0.0
 12
-152.9999996183655
 22
174.3999984740211
 32
0.0
 13
-152.9999996183655
 23
174.3999984740211
 33
0.0
  0
MTEXT
  5
2C5
330
2BF
100
AcDbEntity
  8
1
 62
     3
100
AcDbMText
 10
-154.8499996183655
 20
142.733517784598
 30
0.0
 40
3.5
 41
0.0
 71
     7
 72
     1
  1
54,6
  7
CONVERTER_11
 11
0.0
 21
1.0
 31
0.0
 73
     1
 44
0.60024009603842
  0
ENDBLK
  5
2C7
330
2BF
100
AcDbEntity
  8
0
100
AcDbBlockEnd
  0
BLOCK
  5
2D1
330
2CA
100
AcDbEntity
  8
0
100
AcDbBlockBegin
  2
*D20
 70
     1
 10
0.0
 20
0.0
 30
0.0
  3
*D20
  1

  0
LINE
  5
2CB
330
2CA
100
AcDbEntity
  8
1
  6
Continuous
 62
     2
100
AcDbLine
 10
-117.8999996183654
 20
100.975544979743
 30
0.0
 11
-100.3999996183655
 21
100.975544979743
 31
0.0
  0
LINE
  5
2CC
330
2CA
100
AcDbEntity
  8
1
  6
Continuous
 62
     2
100
AcDbLine
 10
-117.8999996183654
 20
116.422134446138
 30
0.0
 11
-117.8999996183654
 21
98.975544979743
 31
0.0
  0
LINE
  5
2CD
330
2CA
100
AcDbEntity
  8
1
  6
Continuous
 62
     2
100
AcDbLine
 10
-100.3999996183655
 20
118.5987484740211
 30
0.0
 11
-100.3999996183655
 21
98.975544979743
 31
0.0
  0
SOLID
  5
2CE
330
2CA
100
AcDbEntity
  8
1
 62
     2
100
AcDbTrace
 10
-114.3999996183654
 20
101.4363287212989
 30
0.0
 11
-114.3999996183654
 21
100.5147612381871
 31
0.0
 12
-117.8999996183654
 22
100.975544979743
 32
0.0
 13
-117.8999996183654
 23
100.975544979743
 33
0.0
  0
SOLID
  5
2CF
330
2CA
100
AcDbEntity
  8
1
 62
     2
100
AcDbTrace
 10
-103.8999996183655
 20
100.5147612381871
 30
0.0
 11
-103.8999996183655
 21
101.4363287212989
 31
0.0
 12
-100.3999996183655
 22
100.975544979743
 32
0.0
 13
-100.3999996183655
 23
100.975544979743
 33
0.0
  0
MTEXT
  5
2D0
330
2CA
100
AcDbEntity
  8
1
 62
     3
100
AcDbMText
 10
-114.832512645988
 20
103.325544979743
 30
0.0
 40
3.5
 41
0.0
 71
     7
 72
     1
  1
17,5
  7
CONVERTER_11
 11
0.9999999999970619
 21
2.424068405545306E-6
 31
0.0
 73
     1
 44
0.60024009603842
  0
ENDBLK
  5
2D2
330
2CA
100
AcDbEntity
  8
0
100
AcDbBlockEnd
  0
BLOCK
  5
2DC
330
2D5
100
AcDbEntity
  8
0
100
AcDbBlockBegin
  2
*D21
 70
     1
 10
0.0
 20
0.0
 30
0.0
  3
*D21
  1

  0
LINE
  5
2D6
330
2D5
100
AcDbEntity
  8
1
  6
Continuous
 62
     2
100
AcDbLine
 10
-117.8999996183654
 20
91.7518042154679
 30
0.0
 11
-92.99999961836546
 21
91.7518042154679
 31
0.0
  0
LINE
  5
2D7
330
2D5
100
AcDbEntity
  8
1
  6
Continuous
 62
     2
100
AcDbLine
 10
-117.8999996183654
 20
116.422134446138
 30
0.0
 11
-117.8999996183654
 21
89.7518042154679
 31
0.0
  0
LINE
  5
2D8
330
2D5
100
AcDbEntity
  8
1
  6
Continuous
 62
     2
100
AcDbLine
 10
-92.99999961836546
 20
122.3999984740211
 30
0.0
 11
-92.99999961836546
 21
89.7518042154679
 31
0.0
  0
SOLID
  5
2D9
330
2D5
100
AcDbEntity
  8
1
 62
     2
100
AcDbTrace
 10
-114.3999996183654
 20
92.21258795702379
 30
0.0
 11
-114.3999996183654
 21
91.29102047391201
 31
0.0
 12
-117.8999996183654
 22
91.7518042154679
 32
0.0
 13
-117.8999996183654
 23
91.7518042154679
 33
0.0
  0
SOLID
  5
2DA
330
2D5
100
AcDbEntity
  8
1
 62
     2
100
AcDbTrace
 10
-96.49999961836546
 20
91.29102047391201
 30
0.0
 11
-96.49999961836546
 21
92.21258795702379
 31
0.0
 12
-92.99999961836546
 22
91.7518042154679
 32
0.0
 13
-92.99999961836546
 23
91.7518042154679
 33
0.0
  0
MTEXT
  5
2DB
330
2D5
100
AcDbEntity
  8
1
 62
     3
100
AcDbMText
 10
-110.724393704608
 20
94.1018042154679
 30
0.0
 40
3.5
 41
0.0
 71
     7
 72
     1
  1
24,9
  7
CONVERTER_11
 11
0.9999999999970619
 21
2.424068405545306E-6
 31
0.0
 73
     1
 44
0.60024009603842
  0
ENDBLK
  5
2DD
330
2D5
100
AcDbEntity
  8
0
100
AcDbBlockEnd
  0
BLOCK
  5
2E7
330
2E0
100
AcDbEntity
  8
0
100
AcDbBlockBegin
  2
*D22
 70
     1
 10
0.0
 20
0.0
 30
0.0
  3
*D22
  1

  0
LINE
  5
2E1
330
2E0
100
AcDbEntity
  8
1
  6
Continuous
 62
     2
100
AcDbLine
 10
-92.99999961836549
 20
79.58167871306799
 30
0.0
 11
-142.9999996183655
 21
79.58167871306799
 31
0.0
  0
LINE
  5
2E2
330
2E0
100
AcDbEntity
  8
1
  6
Continuous
 62
     2
100
AcDbLine
 10
-92.99999961836549
 20
122.3999984740211
 30
0.0
 11
-92.99999961836549
 21
77.58167871306799
 31
0.0
  0
LINE
  5
2E3
330
2E0
100
AcDbEntity
  8
1
  6
Continuous
 62
     2
100
AcDbLine
 10
-142.9999996183655
 20
151.4499984740211
 30
0.0
 11
-142.9999996183655
 21
77.58167871306799
 31
0.0
  0
SOLID
  5
2E4
330
2E0
100
AcDbEntity
  8
1
 62
     2
100
AcDbTrace
 10
-96.49999961836549
 20
79.1208949715121
 30
0.0
 11
-96.49999961836549
 21
80.04246245462387
 31
0.0
 12
-92.99999961836549
 22
79.58167871306799
 32
0.0
 13
-92.99999961836549
 23
79.58167871306799
 33
0.0
  0
SOLID
  5
2E5
330
2E0
100
AcDbEntity
  8
1
 62
     2
100
AcDbTrace
 10
-139.4999996183655
 20
80.04246245462387
 30
0.0
 11
-139.4999996183655
 21
79.1208949715121
 31
0.0
 12
-142.9999996183655
 22
79.58167871306799
 32
0.0
 13
-142.9999996183655
 23
79.58167871306799
 33
0.0
  0
MTEXT
  5
2E6
330
2E0
100
AcDbEntity
  8
1
 62
     3
100
AcDbMText
 10
-120.5249996183655
 20
81.58167871306799
 30
0.0
 40
3.5
 41
0.0
 71
     7
 72
     1
  1
50
  7
CONVERTER_11
 11
0.9999999999970619
 21
2.424068405545306E-6
 31
0.0
 73
     1
 44
0.60024009603842
  0
ENDBLK
  5
2E8
330
2E0
100
AcDbEntity
  8
0
100
AcDbBlockEnd
  0
ENDSEC
  0
SECTION
  2
ENTITIES
  0
INSERT
  5
86
330
1F
100
AcDbEntity
  8
1
100
AcDbBlockReference
  2
1
 10
0.0
 20
0.0
 30
0.0
  0
ENDSEC
  0
SECTION
  2
OBJECTS
  0
DICTIONARY
  5
C
330
0
100
AcDbDictionary
281
     1
  3
ACAD_GROUP
350
D
  3
ACAD_LAYOUT
350
1A
  3
ACAD_MATERIAL
350
3B
  3
ACAD_MLEADERSTYLE
350
44B
  3
ACAD_MLINESTYLE
350
17
  3
ACAD_PLOTSETTINGS
350
19
  3
ACAD_PLOTSTYLENAME
350
E
  3
ACAD_TABLESTYLE
350
44A
  3
ACAD_VISUALSTYLE
350
2A
  0
DICTIONARY
  5
D
102
{ACAD_REACTORS
330
C
102
}
330
C
100
AcDbDictionary
281
     1
  0
DICTIONARY
  5
1A
102
{ACAD_REACTORS
330
C
102
}
330
C
100
AcDbDictionary
281
     1
  3
Layout1
350
1E
  3
Layout2
350
26
  3
Model
350
22
  0
DICTIONARY
  5
3B
102
{ACAD_REACTORS
330
C
102
}
330
C
100
AcDbDictionary
281
     1
  3
ByBlock
350
3D
  3
ByLayer
350
3C
  3
Global
350
3E
  0
DICTIONARY
  5
44B
102
{ACAD_REACTORS
330
C
102
}
330
C
100
AcDbDictionary
281
     1
  0
DICTIONARY
  5
17
102
{ACAD_REACTORS
330
C
102
}
330
C
100
AcDbDictionary
281
     1
  3
Standard
350
18
  0
DICTIONARY
  5
19
102
{ACAD_REACTORS
330
C
102
}
330
C
100
AcDbDictionary
281
     1
  0
ACDBDICTIONARYWDFLT
  5
E
102
{ACAD_REACTORS
330
C
102
}
330
C
100
AcDbDictionary
281
     1
  3
Normal
350
F
100
AcDbDictionaryWithDefault
340
F
  0
DICTIONARY
  5
44A
102
{ACAD_REACTORS
330
C
102
}
330
C
100
AcDbDictionary
281
     1
  0
DICTIONARY
  5
2A
102
{ACAD_REACTORS
330
C
102
}
330
C
100
AcDbDictionary
281
     1
  3
2dWireframe
350
2F
  3
3D Hidden
350
31
  3
3dWireframe
350
30
  3
Basic
350
32
  3
Brighten
350
36
  3
ColorChange
350
3A
  3
Conceptual
350
34
  3
Dim
350
35
  3
Facepattern
350
39
  3
Flat
350
2B
  3
FlatWithEdges
350
2C
  3
Gouraud
350
2D
  3
GouraudWithEdges
350
2E
  3
Linepattern
350
38
  3
Realistic
350
33
  3
Thicken
350
37
  0
LAYOUT
  5
1E
102
{ACAD_REACTORS
330
1A
102
}
330
1A
100
AcDbPlotSettings
  1

  2
none_device
  4

  6

 40
0.0
 41
0.0
 42
0.0
 43
0.0
 44
0.0
 45
0.0
 46
0.0
 47
0.0
 48
0.0
 49
0.0
140
0.0
141
0.0
142
1.0
143
1.0
 70
   688
 72
     0
 73
     0
 74
     5
  7

 75
    16
 76
     0
 77
     2
 78
   300
147
1.0
148
0.0
149
0.0
100
AcDbLayout
  1
Layout1
 70
     1
 71
     1
 10
0.0
 20
0.0
 11
12.0
 21
9.0
 12
0.0
 22
0.0
 32
0.0
 14
1.00000000000000E+20
 24
1.00000000000000E+20
 34
1.00000000000000E+20
 15
-1.00000000000000E+20
 25
-1.00000000000000E+20
 35
-1.00000000000000E+20
146
0.0
 13
0.0
 23
0.0
 33
0.0
 16
1.0
 26
0.0
 36
0.0
 17
0.0
 27
1.0
 37
0.0
 76
     0
330
1B
  0
LAYOUT
  5
26
102
{ACAD_REACTORS
330
1A
102
}
330
1A
100
AcDbPlotSettings
  1

  2
none_device
  4

  6

 40
0.0
 41
0.0
 42
0.0
 43
0.0
 44
0.0
 45
0.0
 46
0.0
 47
0.0
 48
0.0
 49
0.0
140
0.0
141
0.0
142
1.0
143
1.0
 70
   688
 72
     0
 73
     0
 74
     5
  7

 75
    16
 76
     0
 77
     2
 78
   300
147
1.0
148
0.0
149
0.0
100
AcDbLayout
  1
Layout2
 70
     1
 71
     2
 10
0.0
 20
0.0
 11
0.0
 21
0.0
 12
0.0
 22
0.0
 32
0.0
 14
0.0
 24
0.0
 34
0.0
 15
0.0
 25
0.0
 35
0.0
146
0.0
 13
0.0
 23
0.0
 33
0.0
 16
1.0
 26
0.0
 36
0.0
 17
0.0
 27
1.0
 37
0.0
 76
     0
330
23
  0
LAYOUT
  5
22
102
{ACAD_REACTORS
330
1A
102
}
330
1A
100
AcDbPlotSettings
  1

  2
none_device
  4

  6

 40
0.0
 41
0.0
 42
0.0
 43
0.0
 44
0.0
 45
0.0
 46
0.0
 47
0.0
 48
0.0
 49
0.0
140
0.0
141
0.0
142
1.0
143
1.0
 70
  1712
 72
     0
 73
     0
 74
     0
  7

 75
     0
 76
     0
 77
     2
 78
   300
147
1.0
148
0.0
149
0.0
100
AcDbLayout
  1
Model
 70
     1
 71
     0
 10
0.0
 20
0.0
 11
12.0
 21
9.0
 12
0.0
 22
0.0
 32
0.0
 14
-236.7996822874404
 24
-0.73403482704907
 34
0.0
 15
60.20031771255765
 25
209.265965172951
 35
0.0
146
0.0
 13
0.0
 23
0.0
 33
0.0
 16
1.0
 26
0.0
 36
0.0
 17
0.0
 27
1.0
 37
0.0
 76
     0
330
1F
331
29
  0
MATERIAL
  5
3D
102
{ACAD_REACTORS
330
3B
102
}
102
{ACAD_XDICTIONARY
360
446
102
}
330
3B
100
AcDbMaterial
  1
ByBlock
  0
MATERIAL
  5
3C
102
{ACAD_REACTORS
330
3B
102
}
102
{ACAD_XDICTIONARY
360
444
102
}
330
3B
100
AcDbMaterial
  1
ByLayer
  0
MATERIAL
  5
3E
102
{ACAD_REACTORS
330
3B
102
}
102
{ACAD_XDICTIONARY
360
448
102
}
330
3B
100
AcDbMaterial
  1
Global
  0
MLINESTYLE
  5
18
102
{ACAD_REACTORS
330
17
102
}
330
17
100
AcDbMlineStyle
  2
Standard
 70
     0
  3

 62
   256
 51
90.0
 52
90.0
 71
     2
 49
0.5
 62
   256
  6
BYLAYER
 49
-0.5
 62
   256
  6
BYLAYER
  0
ACDBPLACEHOLDER
  5
F
102
{ACAD_REACTORS
330
E
102
}
330
E
  0
VISUALSTYLE
  5
2F
102
{ACAD_REACTORS
330
2A
102
}
102
{ACAD_XDICTIONARY
360
42C
102
}
330
2A
100
AcDbVisualStyle
  2
2dWireframe
 70
     4
 71
     0
 72
     2
 73
     0
 90
        0
 40
-0.6
 41
-30.0
 62
     5
 63
     7
421
 16777215
 74
     1
 91
        4
 64
     7
 65
   257
 75
     1
175
     1
 42
1.0
 92
        0
 66
   257
 43
1.0
 76
     1
 77
     6
 78
     2
 67
     7
 79
     5
170
     0
171
     0
290
     0
174
     0
 93
        1
 44
0.0
173
     0
291
     0
 45
0.0
1001
ACAD
1000
AcDbSavedByObjectVersion
1070
     0
  0
VISUALSTYLE
  5
31
102
{ACAD_REACTORS
330
2A
102
}
102
{ACAD_XDICTIONARY
360
430
102
}
330
2A
100
AcDbVisualStyle
  2
3D Hidden
 70
     6
 71
     1
 72
     2
 73
     2
 90
        0
 40
-0.6
 41
-30.0
 62
     5
 63
     7
421
 16777215
 74
     2
 91
        2
 64
     7
 65
   257
 75
     2
175
     1
 42
40.0
 92
        0
 66
   257
 43
1.0
 76
     1
 77
     6
 78
     2
 67
     7
 79
     3
170
     0
171
     0
290
     0
174
     0
 93
        1
 44
0.0
173
     0
291
     0
 45
0.0
1001
ACAD
1000
AcDbSavedByObjectVersion
1070
     0
  0
VISUALSTYLE
  5
30
102
{ACAD_REACTORS
330
2A
102
}
102
{ACAD_XDICTIONARY
360
42E
102
}
330
2A
100
AcDbVisualStyle
  2
3dWireframe
 70
     5
 71
     0
 72
     2
 73
     0
 90
        0
 40
-0.6
 41
-30.0
 62
     5
 63
     7
421
 16777215
 74
     1
 91
        4
 64
     7
 65
   257
 75
     1
175
     1
 42
1.0
 92
        0
 66
   257
 43
1.0
 76
     1
 77
     6
 78
     2
 67
     7
 79
     5
170
     0
171
     0
290
     0
174
     0
 93
        1
 44
0.0
173
     0
291
     0
 45
0.0
1001
ACAD
1000
AcDbSavedByObjectVersion
1070
     0
  0
VISUALSTYLE
  5
32
102
{ACAD_REACTORS
330
2A
102
}
102
{ACAD_XDICTIONARY
360
432
102
}
330
2A
100
AcDbVisualStyle
  2
Basic
 70
     7
 71
     1
 72
     0
 73
     1
 90
        0
 40
-0.6
 41
-30.0
 62
     5
 63
     7
421
 16777215
 74
     0
 91
        4
 64
     7
 65
   257
 75
     1
175
     1
 42
1.0
 92
        8
 66
     7
 43
1.0
 76
     1
 77
     6
 78
     2
 67
     7
 79
     5
170
     0
171
     0
290
     0
174
     0
 93
        1
 44
0.0
173
     0
291
     1
 45
0.0
1001
ACAD
1000
AcDbSavedByObjectVersion
1070
     0
  0
VISUALSTYLE
  5
36
102
{ACAD_REACTORS
330
2A
102
}
102
{ACAD_XDICTIONARY
360
43A
102
}
330
2A
100
AcDbVisualStyle
  2
Brighten
 70
    12
 71
     2
 72
     2
 73
     0
 90
        0
 40
-0.6
 41
-30.0
 62
     5
 63
     7
421
 16777215
 74
     1
 91
        4
 64
     7
 65
   257
 75
     1
175
     1
 42
1.0
 92
        8
 66
     7
 43
1.0
 76
     1
 77
     6
 78
     2
 67
     7
 79
     5
170
     0
171
     0
290
     0
174
     0
 93
        1
 44
50.0
173
     0
291
     1
 45
0.0
1001
ACAD
1000
AcDbSavedByObjectVersion
1070
     0
  0
VISUALSTYLE
  5
3A
102
{ACAD_REACTORS
330
2A
102
}
102
{ACAD_XDICTIONARY
360
442
102
}
330
2A
100
AcDbVisualStyle
  2
ColorChange
 70
    16
 71
     2
 72
     2
 73
     3
 90
        0
 40
-0.6
 41
-30.0
 62
     5
 63
     8
421
  8421504
 74
     1
 91
        4
 64
     7
 65
   257
 75
     1
175
     1
 42
1.0
 92
        8
 66
     8
424
  8421504
 43
1.0
 76
     1
 77
     6
 78
     2
 67
     7
 79
     5
170
     0
171
     0
290
     0
174
     0
 93
        1
 44
0.0
173
     0
291
     1
 45
0.0
1001
ACAD
1000
AcDbSavedByObjectVersion
1070
     0
  0
VISUALSTYLE
  5
34
102
{ACAD_REACTORS
330
2A
102
}
102
{ACAD_XDICTIONARY
360
436
102
}
330
2A
100
AcDbVisualStyle
  2
Conceptual
 70
     9
 71
     3
 72
     2
 73
     0
 90
        0
 40
-0.6
 41
-30.0
 62
     5
 63
     7
421
 16777215
 74
     2
 91
        2
 64
     7
 65
   257
 75
     1
175
     1
 42
40.0
 92
        8
 66
     7
 43
1.0
 76
     1
 77
     6
 78
     2
 67
     7
 79
     3
170
     0
171
     0
290
     0
174
     0
 93
        1
 44
0.0
173
     0
291
     0
 45
0.0
1001
ACAD
1000
AcDbSavedByObjectVersion
1070
     0
  0
VISUALSTYLE
  5
35
102
{ACAD_REACTORS
330
2A
102
}
102
{ACAD_XDICTIONARY
360
438
102
}
330
2A
100
AcDbVisualStyle
  2
Dim
 70
    11
 71
     2
 72
     2
 73
     0
 90
        0
 40
-0.6
 41
-30.0
 62
     5
 63
     7
421
 16777215
 74
     1
 91
        4
 64
     7
 65
   257
 75
     1
175
     1
 42
1.0
 92
        8
 66
     7
 43
1.0
 76
     1
 77
     6
 78
     2
 67
     7
 79
     5
170
     0
171
     0
290
     0
174
     0
 93
        1
 44
-50.0
173
     0
291
     1
 45
0.0
1001
ACAD
1000
AcDbSavedByObjectVersion
1070
     0
  0
VISUALSTYLE
  5
39
102
{ACAD_REACTORS
330
2A
102
}
102
{ACAD_XDICTIONARY
360
440
102
}
330
2A
100
AcDbVisualStyle
  2
Facepattern
 70
    15
 71
     2
 72
     2
 73
     0
 90
        0
 40
-0.6
 41
-30.0
 62
     5
 63
     7
421
 16777215
 74
     1
 91
        4
 64
     7
 65
   257
 75
     1
175
     1
 42
1.0
 92
        8
 66
     7
 43
1.0
 76
     1
 77
     6
 78
     2
 67
     7
 79
     5
170
     0
171
     0
290
     0
174
     0
 93
        1
 44
0.0
173
     0
291
     1
 45
0.0
1001
ACAD
1000
AcDbSavedByObjectVersion
1070
     0
  0
VISUALSTYLE
  5
2B
102
{ACAD_REACTORS
330
2A
102
}
102
{ACAD_XDICTIONARY
360
424
102
}
330
2A
100
AcDbVisualStyle
  2
Flat
 70
     0
 71
     2
 72
     1
 73
     1
 90
        2
 40
-0.6
 41
30.0
 62
     5
 63
     7
421
 16777215
 74
     0
 91
        4
 64
     7
 65
   257
 75
     1
175
     1
 42
1.0
 92
        8
 66
     7
 43
1.0
 76
     1
 77
     6
 78
     2
 67
     7
 79
     5
170
     0
171
     0
290
     0
174
     0
 93
       13
 44
0.0
173
     0
291
     1
 45
0.0
1001
ACAD
1000
AcDbSavedByObjectVersion
1070
     0
  0
VISUALSTYLE
  5
2C
102
{ACAD_REACTORS
330
2A
102
}
102
{ACAD_XDICTIONARY
360
426
102
}
330
2A
100
AcDbVisualStyle
  2
FlatWithEdges
 70
     1
 71
     2
 72
     1
 73
     1
 90
        2
 40
-0.6
 41
30.0
 62
     5
 63
     7
421
 16777215
 74
     1
 91
        4
 64
     7
 65
   257
 75
     1
175
     1
 42
1.0
 92
        0
 66
   257
 43
1.0
 76
     1
 77
     6
 78
     2
 67
     7
 79
     5
170
     0
171
     0
290
     0
174
     0
 93
       13
 44
0.0
173
     0
291
     1
 45
0.0
1001
ACAD
1000
AcDbSavedByObjectVersion
1070
     0
  0
VISUALSTYLE
  5
2D
102
{ACAD_REACTORS
330
2A
102
}
102
{ACAD_XDICTIONARY
360
428
102
}
330
2A
100
AcDbVisualStyle
  2
Gouraud
 70
     2
 71
     2
 72
     2
 73
     1
 90
        2
 40
-0.6
 41
30.0
 62
     5
 63
     7
421
 16777215
 74
     0
 91
        4
 64
     7
 65
   257
 75
     1
175
     1
 42
1.0
 92
        0
 66
     7
 43
1.0
 76
     1
 77
     6
 78
     2
 67
     7
 79
     5
170
     0
171
     0
290
     0
174
     0
 93
       13
 44
0.0
173
     0
291
     1
 45
0.0
1001
ACAD
1000
AcDbSavedByObjectVersion
1070
     0
  0
VISUALSTYLE
  5
2E
102
{ACAD_REACTORS
330
2A
102
}
102
{ACAD_XDICTIONARY
360
42A
102
}
330
2A
100
AcDbVisualStyle
  2
GouraudWithEdges
 70
     3
 71
     2
 72
     2
 73
     1
 90
        2
 40
-0.6
 41
30.0
 62
     5
 63
     7
421
 16777215
 74
     1
 91
        4
 64
     7
 65
   257
 75
     1
175
     1
 42
1.0
 92
        0
 66
   257
 43
1.0
 76
     1
 77
     6
 78
     2
 67
     7
 79
     5
170
     0
171
     0
290
     0
174
     0
 93
       13
 44
0.0
173
     0
291
     1
 45
0.0
1001
ACAD
1000
AcDbSavedByObjectVersion
1070
     0
  0
VISUALSTYLE
  5
38
102
{ACAD_REACTORS
330
2A
102
}
102
{ACAD_XDICTIONARY
360
43E
102
}
330
2A
100
AcDbVisualStyle
  2
Linepattern
 70
    14
 71
     2
 72
     2
 73
     0
 90
        0
 40
-0.6
 41
-30.0
 62
     5
 63
     7
421
 16777215
 74
     1
 91
        4
 64
     7
 65
   257
 75
     7
175
     7
 42
1.0
 92
        8
 66
     7
 43
1.0
 76
     1
 77
     6
 78
     2
 67
     7
 79
     5
170
     0
171
     0
290
     0
174
     0
 93
        1
 44
0.0
173
     0
291
     1
 45
0.0
1001
ACAD
1000
AcDbSavedByObjectVersion
1070
     0
  0
VISUALSTYLE
  5
33
102
{ACAD_REACTORS
330
2A
102
}
102
{ACAD_XDICTIONARY
360
434
102
}
330
2A
100
AcDbVisualStyle
  2
Realistic
 70
     8
 71
     2
 72
     2
 73
     0
 90
        0
 40
-0.6
 41
-30.0
 62
     5
 63
     7
421
 16777215
 74
     1
 91
        0
 64
     7
 65
   257
 75
     1
175
     1
 42
1.0
 92
        8
 66
     8
424
  7895160
 43
1.0
 76
     1
 77
     6
 78
     2
 67
     7
 79
     5
170
     0
171
     0
290
     0
174
     0
 93
       13
 44
0.0
173
     0
291
     0
 45
0.0
1001
ACAD
1000
AcDbSavedByObjectVersion
1070
     0
  0
VISUALSTYLE
  5
37
102
{ACAD_REACTORS
330
2A
102
}
102
{ACAD_XDICTIONARY
360
43C
102
}
330
2A
100
AcDbVisualStyle
  2
Thicken
 70
    13
 71
     2
 72
     2
 73
     0
 90
        0
 40
-0.6
 41
-30.0
 62
     5
 63
     7
421
 16777215
 74
     1
 91
        4
 64
     7
 65
   257
 75
     1
175
     1
 42
1.0
 92
       12
 66
     7
 43
1.0
 76
     1
 77
     6
 78
     2
 67
     7
 79
     5
170
     0
171
     0
290
     0
174
     0
 93
        1
 44
0.0
173
     0
291
     1
 45
0.0
1001
ACAD
1000
AcDbSavedByObjectVersion
1070
     0
  0
DICTIONARY
  5
446
330
3D
100
AcDbDictionary
280
     1
281
     1
  3
ACAD_XREC_ROUNDTRIP
360
447
  0
DICTIONARY
  5
444
330
3C
100
AcDbDictionary
280
     1
281
     1
  3
ACAD_XREC_ROUNDTRIP
360
445
  0
DICTIONARY
  5
448
330
3E
100
AcDbDictionary
280
     1
281
     1
  3
ACAD_XREC_ROUNDTRIP
360
449
  0
DICTIONARY
  5
42C
330
2F
100
AcDbDictionary
280
     1
281
     1
  3
ACAD_XREC_ROUNDTRIP
360
42D
  0
DICTIONARY
  5
430
330
31
100
AcDbDictionary
280
     1
281
     1
  3
ACAD_XREC_ROUNDTRIP
360
431
  0
DICTIONARY
  5
42E
330
30
100
AcDbDictionary
280
     1
281
     1
  3
ACAD_XREC_ROUNDTRIP
360
42F
  0
DICTIONARY
  5
432
330
32
100
AcDbDictionary
280
     1
281
     1
  3
ACAD_XREC_ROUNDTRIP
360
433
  0
DICTIONARY
  5
43A
330
36
100
AcDbDictionary
280
     1
281
     1
  3
ACAD_XREC_ROUNDTRIP
360
43B
  0
DICTIONARY
  5
442
330
3A
100
AcDbDictionary
280
     1
281
     1
  3
ACAD_XREC_ROUNDTRIP
360
443
  0
DICTIONARY
  5
436
330
34
100
AcDbDictionary
280
     1
281
     1
  3
ACAD_XREC_ROUNDTRIP
360
437
  0
DICTIONARY
  5
438
330
35
100
AcDbDictionary
280
     1
281
     1
  3
ACAD_XREC_ROUNDTRIP
360
439
  0
DICTIONARY
  5
440
330
39
100
AcDbDictionary
280
     1
281
     1
  3
ACAD_XREC_ROUNDTRIP
360
441
  0
DICTIONARY
  5
424
330
2B
100
AcDbDictionary
280
     1
281
     1
  3
ACAD_XREC_ROUNDTRIP
360
425
  0
DICTIONARY
  5
426
330
2C
100
AcDbDictionary
280
     1
281
     1
  3
ACAD_XREC_ROUNDTRIP
360
427
  0
DICTIONARY
  5
428
330
2D
100
AcDbDictionary
280
     1
281
     1
  3
ACAD_XREC_ROUNDTRIP
360
429
  0
DICTIONARY
  5
42A
330
2E
100
AcDbDictionary
280
     1
281
     1
  3
ACAD_XREC_ROUNDTRIP
360
42B
  0
DICTIONARY
  5
43E
330
38
100
AcDbDictionary
280
     1
281
     1
  3
ACAD_XREC_ROUNDTRIP
360
43F
  0
DICTIONARY
  5
434
330
33
100
AcDbDictionary
280
     1
281
     1
  3
ACAD_XREC_ROUNDTRIP
360
435
  0
DICTIONARY
  5
43C
330
37
100
AcDbDictionary
280
     1
281
     1
  3
ACAD_XREC_ROUNDTRIP
360
43D
  0
XRECORD
  5
447
102
{ACAD_REACTORS
330
446
102
}
330
446
100
AcDbXrecord
280
     1
102
MATERIAL
148
0.0
149
0.0
149
0.0
 93
        0
 94
      127
282
     0
 72
     1
 77
     1
171
     1
175
     1
179
     1
273
     0
  0
XRECORD
  5
445
102
{ACAD_REACTORS
330
444
102
}
330
444
100
AcDbXrecord
280
     1
102
MATERIAL
148
0.0
149
0.0
149
0.0
 93
        0
 94
      127
282
     0
 72
     1
 77
     1
171
     1
175
     1
179
     1
273
     0
  0
XRECORD
  5
449
102
{ACAD_REACTORS
330
448
102
}
330
448
100
AcDbXrecord
280
     1
102
MATERIAL
148
0.0
149
0.0
149
0.0
 93
        0
 94
      127
282
     0
 72
     1
 77
     1
171
     1
175
     1
179
     1
273
     0
  0
XRECORD
  5
42D
102
{ACAD_REACTORS
330
42C
102
}
330
42C
100
AcDbXrecord
280
     1
102
RTVSPropertyOp0
 70
     1
102
RTVSPropertyOp1
 70
     1
102
RTVSPropertyOp2
 70
     1
102
RTVSPropertyOp3
 70
     1
102
RTVSPropertyOp4
 70
     1
102
RTVSPropertyOp5
 70
     1
102
RTVSPropertyOp6
 70
     1
102
RTVSPropertyOp7
 70
     1
102
RTVSPropertyOp8
 70
     1
102
RTVSPropertyOp9
 70
     1
102
RTVSPropertyOp10
 70
     1
102
RTVSPropertyOp11
 70
     1
102
RTVSPropertyOp12
 70
     1
102
RTVSPropertyOp13
 70
     1
102
RTVSPropertyOp14
 70
     1
102
RTVSPropertyOp15
 70
     1
102
RTVSPropertyOp16
 70
     1
102
RTVSPropertyOp17
 70
     1
102
RTVSPropertyOp18
 70
     1
102
RTVSPropertyOp19
 70
     1
102
RTVSPropertyOp20
 70
     1
102
RTVSPropertyOp21
 70
     1
102
RTVSPropertyOp22
 70
     1
102
RTVSPropertyOp23
 70
     1
102
RTVSPropertyOp24
 70
     1
102
RTVSPropertyOp25
 70
     1
102
RTVSPropertyOp26
 70
     1
102
RTVSPropertyOp27
 70
     1
102
RTVSPropertyOp28
 70
     1
102
RTVSPropertyOp29
 70
     1
102
RTVSPropertyOp30
 70
     1
102
RTVSPropertyOp31
 70
     1
102
RTVSPropertyOp32
 70
     1
  0
XRECORD
  5
431
102
{ACAD_REACTORS
330
430
102
}
330
430
100
AcDbXrecord
280
     1
102
RTVSPropertyOp0
 70
     1
102
RTVSPropertyOp1
 70
     1
102
RTVSPropertyOp2
 70
     1
102
RTVSPropertyOp3
 70
     1
102
RTVSPropertyOp4
 70
     1
102
RTVSPropertyOp5
 70
     1
102
RTVSPropertyOp6
 70
     1
102
RTVSPropertyOp7
 70
     1
102
RTVSPropertyOp8
 70
     1
102
RTVSPropertyOp9
 70
     1
102
RTVSPropertyOp10
 70
     1
102
RTVSPropertyOp11
 70
     1
102
RTVSPropertyOp12
 70
     1
102
RTVSPropertyOp13
 70
     1
102
RTVSPropertyOp14
 70
     1
102
RTVSPropertyOp15
 70
     1
102
RTVSPropertyOp16
 70
     1
102
RTVSPropertyOp17
 70
     1
102
RTVSPropertyOp18
 70
     1
102
RTVSPropertyOp19
 70
     1
102
RTVSPropertyOp20
 70
     1
102
RTVSPropertyOp21
 70
     1
102
RTVSPropertyOp22
 70
     1
102
RTVSPropertyOp23
 70
     1
102
RTVSPropertyOp24
 70
     1
102
RTVSPropertyOp25
 70
     1
102
RTVSPropertyOp26
 70
     1
102
RTVSPropertyOp27
 70
     1
102
RTVSPropertyOp28
 70
     1
102
RTVSPropertyOp29
 70
     1
102
RTVSPropertyOp30
 70
     1
102
RTVSPropertyOp31
 70
     1
102
RTVSPropertyOp32
 70
     1
  0
XRECORD
  5
42F
102
{ACAD_REACTORS
330
42E
102
}
330
42E
100
AcDbXrecord
280
     1
102
RTVSPropertyOp0
 70
     1
102
RTVSPropertyOp1
 70
     1
102
RTVSPropertyOp2
 70
     1
102
RTVSPropertyOp3
 70
     1
102
RTVSPropertyOp4
 70
     1
102
RTVSPropertyOp5
 70
     1
102
RTVSPropertyOp6
 70
     1
102
RTVSPropertyOp7
 70
     1
102
RTVSPropertyOp8
 70
     1
102
RTVSPropertyOp9
 70
     1
102
RTVSPropertyOp10
 70
     1
102
RTVSPropertyOp11
 70
     1
102
RTVSPropertyOp12
 70
     1
102
RTVSPropertyOp13
 70
     1
102
RTVSPropertyOp14
 70
     1
102
RTVSPropertyOp15
 70
     1
102
RTVSPropertyOp16
 70
     1
102
RTVSPropertyOp17
 70
     1
102
RTVSPropertyOp18
 70
     1
102
RTVSPropertyOp19
 70
     1
102
RTVSPropertyOp20
 70
     1
102
RTVSPropertyOp21
 70
     1
102
RTVSPropertyOp22
 70
     1
102
RTVSPropertyOp23
 70
     1
102
RTVSPropertyOp24
 70
     1
102
RTVSPropertyOp25
 70
     1
102
RTVSPropertyOp26
 70
     1
102
RTVSPropertyOp27
 70
     1
102
RTVSPropertyOp28
 70
     1
102
RTVSPropertyOp29
 70
     1
102
RTVSPropertyOp30
 70
     1
102
RTVSPropertyOp31
 70
     1
102
RTVSPropertyOp32
 70
     1
  0
XRECORD
  5
433
102
{ACAD_REACTORS
330
432
102
}
330
432
100
AcDbXrecord
280
     1
102
RTVSPropertyOp0
 70
     1
102
RTVSPropertyOp1
 70
     1
102
RTVSPropertyOp2
 70
     1
102
RTVSPropertyOp3
 70
     1
102
RTVSPropertyOp4
 70
     1
102
RTVSPropertyOp5
 70
     1
102
RTVSPropertyOp6
 70
     1
102
RTVSPropertyOp7
 70
     1
102
RTVSPropertyOp8
 70
     1
102
RTVSPropertyOp9
 70
     1
102
RTVSPropertyOp10
 70
     1
102
RTVSPropertyOp11
 70
     1
102
RTVSPropertyOp12
 70
     1
102
RTVSPropertyOp13
 70
     1
102
RTVSPropertyOp14
 70
     1
102
RTVSPropertyOp15
 70
     1
102
RTVSPropertyOp16
 70
     1
102
RTVSPropertyOp17
 70
     1
102
RTVSPropertyOp18
 70
     1
102
RTVSPropertyOp19
 70
     1
102
RTVSPropertyOp20
 70
     1
102
RTVSPropertyOp21
 70
     1
102
RTVSPropertyOp22
 70
     1
102
RTVSPropertyOp23
 70
     1
102
RTVSPropertyOp24
 70
     1
102
RTVSPropertyOp25
 70
     1
102
RTVSPropertyOp26
 70
     1
102
RTVSPropertyOp27
 70
     1
102
RTVSPropertyOp28
 70
     1
102
RTVSPropertyOp29
 70
     1
102
RTVSPropertyOp30
 70
     1
102
RTVSPropertyOp31
 70
     1
102
RTVSPropertyOp32
 70
     1
  0
XRECORD
  5
43B
102
{ACAD_REACTORS
330
43A
102
}
330
43A
100
AcDbXrecord
280
     1
102
RTVSPropertyOp0
 70
     1
102
RTVSPropertyOp1
 70
     1
102
RTVSPropertyOp2
 70
     1
102
RTVSPropertyOp3
 70
     1
102
RTVSPropertyOp4
 70
     1
102
RTVSPropertyOp5
 70
     1
102
RTVSPropertyOp6
 70
     1
102
RTVSPropertyOp7
 70
     1
102
RTVSPropertyOp8
 70
     1
102
RTVSPropertyOp9
 70
     1
102
RTVSPropertyOp10
 70
     1
102
RTVSPropertyOp11
 70
     1
102
RTVSPropertyOp12
 70
     1
102
RTVSPropertyOp13
 70
     1
102
RTVSPropertyOp14
 70
     1
102
RTVSPropertyOp15
 70
     1
102
RTVSPropertyOp16
 70
     1
102
RTVSPropertyOp17
 70
     1
102
RTVSPropertyOp18
 70
     1
102
RTVSPropertyOp19
 70
     1
102
RTVSPropertyOp20
 70
     1
102
RTVSPropertyOp21
 70
     1
102
RTVSPropertyOp22
 70
     1
102
RTVSPropertyOp23
 70
     1
102
RTVSPropertyOp24
 70
     1
102
RTVSPropertyOp25
 70
     1
102
RTVSPropertyOp26
 70
     1
102
RTVSPropertyOp27
 70
     1
102
RTVSPropertyOp28
 70
     1
102
RTVSPropertyOp29
 70
     1
102
RTVSPropertyOp30
 70
     1
102
RTVSPropertyOp31
 70
     1
102
RTVSPropertyOp32
 70
     1
  0
XRECORD
  5
443
102
{ACAD_REACTORS
330
442
102
}
330
442
100
AcDbXrecord
280
     1
102
RTVSPropertyOp0
 70
     1
102
RTVSPropertyOp1
 70
     1
102
RTVSPropertyOp2
 70
     1
102
RTVSPropertyOp3
 70
     1
102
RTVSPropertyOp4
 70
     1
102
RTVSPropertyOp5
 70
     1
102
RTVSPropertyOp6
 70
     1
102
RTVSPropertyOp7
 70
     1
102
RTVSPropertyOp8
 70
     1
102
RTVSPropertyOp9
 70
     1
102
RTVSPropertyOp10
 70
     1
102
RTVSPropertyOp11
 70
     1
102
RTVSPropertyOp12
 70
     1
102
RTVSPropertyOp13
 70
     1
102
RTVSPropertyOp14
 70
     1
102
RTVSPropertyOp15
 70
     1
102
RTVSPropertyOp16
 70
     1
102
RTVSPropertyOp17
 70
     1
102
RTVSPropertyOp18
 70
     1
102
RTVSPropertyOp19
 70
     1
102
RTVSPropertyOp20
 70
     1
102
RTVSPropertyOp21
 70
     1
102
RTVSPropertyOp22
 70
     1
102
RTVSPropertyOp23
 70
     1
102
RTVSPropertyOp24
 70
     1
102
RTVSPropertyOp25
 70
     1
102
RTVSPropertyOp26
 70
     1
102
RTVSPropertyOp27
 70
     1
102
RTVSPropertyOp28
 70
     1
102
RTVSPropertyOp29
 70
     1
102
RTVSPropertyOp30
 70
     1
102
RTVSPropertyOp31
 70
     1
102
RTVSPropertyOp32
 70
     1
  0
XRECORD
  5
437
102
{ACAD_REACTORS
330
436
102
}
330
436
100
AcDbXrecord
280
     1
102
RTVSPropertyOp0
 70
     1
102
RTVSPropertyOp1
 70
     1
102
RTVSPropertyOp2
 70
     1
102
RTVSPropertyOp3
 70
     1
102
RTVSPropertyOp4
 70
     1
102
RTVSPropertyOp5
 70
     1
102
RTVSPropertyOp6
 70
     1
102
RTVSPropertyOp7
 70
     1
102
RTVSPropertyOp8
 70
     1
102
RTVSPropertyOp9
 70
     1
102
RTVSPropertyOp10
 70
     1
102
RTVSPropertyOp11
 70
     1
102
RTVSPropertyOp12
 70
     1
102
RTVSPropertyOp13
 70
     1
102
RTVSPropertyOp14
 70
     1
102
RTVSPropertyOp15
 70
     1
102
RTVSPropertyOp16
 70
     1
102
RTVSPropertyOp17
 70
     1
102
RTVSPropertyOp18
 70
     1
102
RTVSPropertyOp19
 70
     1
102
RTVSPropertyOp20
 70
     1
102
RTVSPropertyOp21
 70
     1
102
RTVSPropertyOp22
 70
     1
102
RTVSPropertyOp23
 70
     1
102
RTVSPropertyOp24
 70
     1
102
RTVSPropertyOp25
 70
     1
102
RTVSPropertyOp26
 70
     1
102
RTVSPropertyOp27
 70
     1
102
RTVSPropertyOp28
 70
     1
102
RTVSPropertyOp29
 70
     1
102
RTVSPropertyOp30
 70
     1
102
RTVSPropertyOp31
 70
     1
102
RTVSPropertyOp32
 70
     1
  0
XRECORD
  5
439
102
{ACAD_REACTORS
330
438
102
}
330
438
100
AcDbXrecord
280
     1
102
RTVSPropertyOp0
 70
     1
102
RTVSPropertyOp1
 70
     1
102
RTVSPropertyOp2
 70
     1
102
RTVSPropertyOp3
 70
     1
102
RTVSPropertyOp4
 70
     1
102
RTVSPropertyOp5
 70
     1
102
RTVSPropertyOp6
 70
     1
102
RTVSPropertyOp7
 70
     1
102
RTVSPropertyOp8
 70
     1
102
RTVSPropertyOp9
 70
     1
102
RTVSPropertyOp10
 70
     1
102
RTVSPropertyOp11
 70
     1
102
RTVSPropertyOp12
 70
     1
102
RTVSPropertyOp13
 70
     1
102
RTVSPropertyOp14
 70
     1
102
RTVSPropertyOp15
 70
     1
102
RTVSPropertyOp16
 70
     1
102
RTVSPropertyOp17
 70
     1
102
RTVSPropertyOp18
 70
     1
102
RTVSPropertyOp19
 70
     1
102
RTVSPropertyOp20
 70
     1
102
RTVSPropertyOp21
 70
     1
102
RTVSPropertyOp22
 70
     1
102
RTVSPropertyOp23
 70
     1
102
RTVSPropertyOp24
 70
     1
102
RTVSPropertyOp25
 70
     1
102
RTVSPropertyOp26
 70
     1
102
RTVSPropertyOp27
 70
     1
102
RTVSPropertyOp28
 70
     1
102
RTVSPropertyOp29
 70
     1
102
RTVSPropertyOp30
 70
     1
102
RTVSPropertyOp31
 70
     1
102
RTVSPropertyOp32
 70
     1
  0
XRECORD
  5
441
102
{ACAD_REACTORS
330
440
102
}
330
440
100
AcDbXrecord
280
     1
102
RTVSPropertyOp0
 70
     1
102
RTVSPropertyOp1
 70
     1
102
RTVSPropertyOp2
 70
     1
102
RTVSPropertyOp3
 70
     1
102
RTVSPropertyOp4
 70
     1
102
RTVSPropertyOp5
 70
     1
102
RTVSPropertyOp6
 70
     1
102
RTVSPropertyOp7
 70
     1
102
RTVSPropertyOp8
 70
     1
102
RTVSPropertyOp9
 70
     1
102
RTVSPropertyOp10
 70
     1
102
RTVSPropertyOp11
 70
     1
102
RTVSPropertyOp12
 70
     1
102
RTVSPropertyOp13
 70
     1
102
RTVSPropertyOp14
 70
     1
102
RTVSPropertyOp15
 70
     1
102
RTVSPropertyOp16
 70
     1
102
RTVSPropertyOp17
 70
     1
102
RTVSPropertyOp18
 70
     1
102
RTVSPropertyOp19
 70
     1
102
RTVSPropertyOp20
 70
     1
102
RTVSPropertyOp21
 70
     1
102
RTVSPropertyOp22
 70
     1
102
RTVSPropertyOp23
 70
     1
102
RTVSPropertyOp24
 70
     1
102
RTVSPropertyOp25
 70
     1
102
RTVSPropertyOp26
 70
     1
102
RTVSPropertyOp27
 70
     1
102
RTVSPropertyOp28
 70
     1
102
RTVSPropertyOp29
 70
     1
102
RTVSPropertyOp30
 70
     1
102
RTVSPropertyOp31
 70
     1
102
RTVSPropertyOp32
 70
     1
  0
XRECORD
  5
425
102
{ACAD_REACTORS
330
424
102
}
330
424
100
AcDbXrecord
280
     1
102
RTVSPropertyOp0
 70
     1
102
RTVSPropertyOp1
 70
     1
102
RTVSPropertyOp2
 70
     1
102
RTVSPropertyOp3
 70
     1
102
RTVSPropertyOp4
 70
     1
102
RTVSPropertyOp5
 70
     1
102
RTVSPropertyOp6
 70
     1
102
RTVSPropertyOp7
 70
     1
102
RTVSPropertyOp8
 70
     1
102
RTVSPropertyOp9
 70
     1
102
RTVSPropertyOp10
 70
     1
102
RTVSPropertyOp11
 70
     1
102
RTVSPropertyOp12
 70
     1
102
RTVSPropertyOp13
 70
     1
102
RTVSPropertyOp14
 70
     1
102
RTVSPropertyOp15
 70
     1
102
RTVSPropertyOp16
 70
     1
102
RTVSPropertyOp17
 70
     1
102
RTVSPropertyOp18
 70
     1
102
RTVSPropertyOp19
 70
     1
102
RTVSPropertyOp20
 70
     1
102
RTVSPropertyOp21
 70
     1
102
RTVSPropertyOp22
 70
     1
102
RTVSPropertyOp23
 70
     1
102
RTVSPropertyOp24
 70
     1
102
RTVSPropertyOp25
 70
     1
102
RTVSPropertyOp26
 70
     1
102
RTVSPropertyOp27
 70
     1
102
RTVSPropertyOp28
 70
     1
102
RTVSPropertyOp29
 70
     1
102
RTVSPropertyOp30
 70
     1
102
RTVSPropertyOp31
 70
     1
102
RTVSPropertyOp32
 70
     1
  0
XRECORD
  5
427
102
{ACAD_REACTORS
330
426
102
}
330
426
100
AcDbXrecord
280
     1
102
RTVSPropertyOp0
 70
     1
102
RTVSPropertyOp1
 70
     1
102
RTVSPropertyOp2
 70
     1
102
RTVSPropertyOp3
 70
     1
102
RTVSPropertyOp4
 70
     1
102
RTVSPropertyOp5
 70
     1
102
RTVSPropertyOp6
 70
     1
102
RTVSPropertyOp7
 70
     1
102
RTVSPropertyOp8
 70
     1
102
RTVSPropertyOp9
 70
     1
102
RTVSPropertyOp10
 70
     1
102
RTVSPropertyOp11
 70
     1
102
RTVSPropertyOp12
 70
     1
102
RTVSPropertyOp13
 70
     1
102
RTVSPropertyOp14
 70
     1
102
RTVSPropertyOp15
 70
     1
102
RTVSPropertyOp16
 70
     1
102
RTVSPropertyOp17
 70
     1
102
RTVSPropertyOp18
 70
     1
102
RTVSPropertyOp19
 70
     1
102
RTVSPropertyOp20
 70
     1
102
RTVSPropertyOp21
 70
     1
102
RTVSPropertyOp22
 70
     1
102
RTVSPropertyOp23
 70
     1
102
RTVSPropertyOp24
 70
     1
102
RTVSPropertyOp25
 70
     1
102
RTVSPropertyOp26
 70
     1
102
RTVSPropertyOp27
 70
     1
102
RTVSPropertyOp28
 70
     1
102
RTVSPropertyOp29
 70
     1
102
RTVSPropertyOp30
 70
     1
102
RTVSPropertyOp31
 70
     1
102
RTVSPropertyOp32
 70
     1
  0
XRECORD
  5
429
102
{ACAD_REACTORS
330
428
102
}
330
428
100
AcDbXrecord
280
     1
102
RTVSPropertyOp0
 70
     1
102
RTVSPropertyOp1
 70
     1
102
RTVSPropertyOp2
 70
     1
102
RTVSPropertyOp3
 70
     1
102
RTVSPropertyOp4
 70
     1
102
RTVSPropertyOp5
 70
     1
102
RTVSPropertyOp6
 70
     1
102
RTVSPropertyOp7
 70
     1
102
RTVSPropertyOp8
 70
     1
102
RTVSPropertyOp9
 70
     1
102
RTVSPropertyOp10
 70
     1
102
RTVSPropertyOp11
 70
     1
102
RTVSPropertyOp12
 70
     1
102
RTVSPropertyOp13
 70
     1
102
RTVSPropertyOp14
 70
     1
102
RTVSPropertyOp15
 70
     1
102
RTVSPropertyOp16
 70
     1
102
RTVSPropertyOp17
 70
     1
102
RTVSPropertyOp18
 70
     1
102
RTVSPropertyOp19
 70
     1
102
RTVSPropertyOp20
 70
     1
102
RTVSPropertyOp21
 70
     1
102
RTVSPropertyOp22
 70
     1
102
RTVSPropertyOp23
 70
     1
102
RTVSPropertyOp24
 70
     1
102
RTVSPropertyOp25
 70
     1
102
RTVSPropertyOp26
 70
     1
102
RTVSPropertyOp27
 70
     1
102
RTVSPropertyOp28
 70
     1
102
RTVSPropertyOp29
 70
     1
102
RTVSPropertyOp30
 70
     1
102
RTVSPropertyOp31
 70
     1
102
RTVSPropertyOp32
 70
     1
  0
XRECORD
  5
42B
102
{ACAD_REACTORS
330
42A
102
}
330
42A
100
AcDbXrecord
280
     1
102
RTVSPropertyOp0
 70
     1
102
RTVSPropertyOp1
 70
     1
102
RTVSPropertyOp2
 70
     1
102
RTVSPropertyOp3
 70
     1
102
RTVSPropertyOp4
 70
     1
102
RTVSPropertyOp5
 70
     1
102
RTVSPropertyOp6
 70
     1
102
RTVSPropertyOp7
 70
     1
102
RTVSPropertyOp8
 70
     1
102
RTVSPropertyOp9
 70
     1
102
RTVSPropertyOp10
 70
     1
102
RTVSPropertyOp11
 70
     1
102
RTVSPropertyOp12
 70
     1
102
RTVSPropertyOp13
 70
     1
102
RTVSPropertyOp14
 70
     1
102
RTVSPropertyOp15
 70
     1
102
RTVSPropertyOp16
 70
     1
102
RTVSPropertyOp17
 70
     1
102
RTVSPropertyOp18
 70
     1
102
RTVSPropertyOp19
 70
     1
102
RTVSPropertyOp20
 70
     1
102
RTVSPropertyOp21
 70
     1
102
RTVSPropertyOp22
 70
     1
102
RTVSPropertyOp23
 70
     1
102
RTVSPropertyOp24
 70
     1
102
RTVSPropertyOp25
 70
     1
102
RTVSPropertyOp26
 70
     1
102
RTVSPropertyOp27
 70
     1
102
RTVSPropertyOp28
 70
     1
102
RTVSPropertyOp29
 70
     1
102
RTVSPropertyOp30
 70
     1
102
RTVSPropertyOp31
 70
     1
102
RTVSPropertyOp32
 70
     1
  0
XRECORD
  5
43F
102
{ACAD_REACTORS
330
43E
102
}
330
43E
100
AcDbXrecord
280
     1
102
RTVSPropertyOp0
 70
     1
102
RTVSPropertyOp1
 70
     1
102
RTVSPropertyOp2
 70
     1
102
RTVSPropertyOp3
 70
     1
102
RTVSPropertyOp4
 70
     1
102
RTVSPropertyOp5
 70
     1
102
RTVSPropertyOp6
 70
     1
102
RTVSPropertyOp7
 70
     1
102
RTVSPropertyOp8
 70
     1
102
RTVSPropertyOp9
 70
     1
102
RTVSPropertyOp10
 70
     1
102
RTVSPropertyOp11
 70
     1
102
RTVSPropertyOp12
 70
     1
102
RTVSPropertyOp13
 70
     1
102
RTVSPropertyOp14
 70
     1
102
RTVSPropertyOp15
 70
     1
102
RTVSPropertyOp16
 70
     1
102
RTVSPropertyOp17
 70
     1
102
RTVSPropertyOp18
 70
     1
102
RTVSPropertyOp19
 70
     1
102
RTVSPropertyOp20
 70
     1
102
RTVSPropertyOp21
 70
     1
102
RTVSPropertyOp22
 70
     1
102
RTVSPropertyOp23
 70
     1
102
RTVSPropertyOp24
 70
     1
102
RTVSPropertyOp25
 70
     1
102
RTVSPropertyOp26
 70
     1
102
RTVSPropertyOp27
 70
     1
102
RTVSPropertyOp28
 70
     1
102
RTVSPropertyOp29
 70
     1
102
RTVSPropertyOp30
 70
     1
102
RTVSPropertyOp31
 70
     1
102
RTVSPropertyOp32
 70
     1
  0
XRECORD
  5
435
102
{ACAD_REACTORS
330
434
102
}
330
434
100
AcDbXrecord
280
     1
102
RTVSPropertyOp0
 70
     1
102
RTVSPropertyOp1
 70
     1
102
RTVSPropertyOp2
 70
     1
102
RTVSPropertyOp3
 70
     1
102
RTVSPropertyOp4
 70
     1
102
RTVSPropertyOp5
 70
     1
102
RTVSPropertyOp6
 70
     1
102
RTVSPropertyOp7
 70
     1
102
RTVSPropertyOp8
 70
     1
102
RTVSPropertyOp9
 70
     1
102
RTVSPropertyOp10
 70
     1
102
RTVSPropertyOp11
 70
     1
102
RTVSPropertyOp12
 70
     1
102
RTVSPropertyOp13
 70
     1
102
RTVSPropertyOp14
 70
     1
102
RTVSPropertyOp15
 70
     1
102
RTVSPropertyOp16
 70
     1
102
RTVSPropertyOp17
 70
     1
102
RTVSPropertyOp18
 70
     1
102
RTVSPropertyOp19
 70
     1
102
RTVSPropertyOp20
 70
     1
102
RTVSPropertyOp21
 70
     1
102
RTVSPropertyOp22
 70
     1
102
RTVSPropertyOp23
 70
     1
102
RTVSPropertyOp24
 70
     1
102
RTVSPropertyOp25
 70
     1
102
RTVSPropertyOp26
 70
     1
102
RTVSPropertyOp27
 70
     1
102
RTVSPropertyOp28
 70
     1
102
RTVSPropertyOp29
 70
     1
102
RTVSPropertyOp30
 70
     1
102
RTVSPropertyOp31
 70
     1
102
RTVSPropertyOp32
 70
     1
  0
XRECORD
  5
43D
102
{ACAD_REACTORS
330
43C
102
}
330
43C
100
AcDbXrecord
280
     1
102
RTVSPropertyOp0
 70
     1
102
RTVSPropertyOp1
 70
     1
102
RTVSPropertyOp2
 70
     1
102
RTVSPropertyOp3
 70
     1
102
RTVSPropertyOp4
 70
     1
102
RTVSPropertyOp5
 70
     1
102
RTVSPropertyOp6
 70
     1
102
RTVSPropertyOp7
 70
     1
102
RTVSPropertyOp8
 70
     1
102
RTVSPropertyOp9
 70
     1
102
RTVSPropertyOp10
 70
     1
102
RTVSPropertyOp11
 70
     1
102
RTVSPropertyOp12
 70
     1
102
RTVSPropertyOp13
 70
     1
102
RTVSPropertyOp14
 70
     1
102
RTVSPropertyOp15
 70
     1
102
RTVSPropertyOp16
 70
     1
102
RTVSPropertyOp17
 70
     1
102
RTVSPropertyOp18
 70
     1
102
RTVSPropertyOp19
 70
     1
102
RTVSPropertyOp20
 70
     1
102
RTVSPropertyOp21
 70
     1
102
RTVSPropertyOp22
 70
     1
102
RTVSPropertyOp23
 70
     1
102
RTVSPropertyOp24
 70
     1
102
RTVSPropertyOp25
 70
     1
102
RTVSPropertyOp26
 70
     1
102
RTVSPropertyOp27
 70
     1
102
RTVSPropertyOp28
 70
     1
102
RTVSPropertyOp29
 70
     1
102
RTVSPropertyOp30
 70
     1
102
RTVSPropertyOp31
 70
     1
102
RTVSPropertyOp32
 70
     1
  0
ENDSEC
  0
EOF
